  0
SECTION
  2
HEADER
  9
$ACADVER
  1
AC1027
  9
$ACADMAINTVER
 70
    55
  9
$DWGCODEPAGE
  3
ANSI_932
  9
$LASTSAVEDBY
  1
user
  9
$REQUIREDVERSIONS
160
                 0
  9
$INSBASE
 10
0.0
 20
0.0
 30
0.0
  9
$EXTMIN
 10
199.6737811524344
 20
199.9575941636667
 30
-0.0015258207003583
  9
$EXTMAX
 10
4000.091869481944
 20
5740.17518426312
 30
0.0000000349246037
  9
$LIMMIN
 10
0.0
 20
0.0
  9
$LIMMAX
 10
5940.0
 20
4200.0
  9
$ORTHOMODE
 70
     1
  9
$REGENMODE
 70
     1
  9
$FILLMODE
 70
     1
  9
$QTEXTMODE
 70
     0
  9
$MIRRTEXT
 70
     0
  9
$LTSCALE
 40
1.0
  9
$ATTMODE
 70
     1
  9
$TEXTSIZE
 40
2.0
  9
$TRACEWID
 40
1.0
  9
$TEXTSTYLE
  7
Annotative
  9
$CLAYER
  8
タイトル枠
  9
$CELTYPE
  6
ByLayer
  9
$CECOLOR
 62
   256
  9
$CELTSCALE
 40
1.0
  9
$DISPSILH
 70
     0
  9
$DIMSCALE
 40
0.0
  9
$DIMASZ
 40
1.0
  9
$DIMEXO
 40
1.0
  9
$DIMDLI
 40
3.75
  9
$DIMRND
 40
0.0
  9
$DIMDLE
 40
0.0
  9
$DIMEXE
 40
0.5
  9
$DIMTP
 40
0.0
  9
$DIMTM
 40
0.0
  9
$DIMTXT
 40
2.0
  9
$DIMCEN
 40
2.5
  9
$DIMTSZ
 40
0.0
  9
$DIMTOL
 70
     0
  9
$DIMLIM
 70
     0
  9
$DIMTIH
 70
     0
  9
$DIMTOH
 70
     0
  9
$DIMSE1
 70
     0
  9
$DIMSE2
 70
     0
  9
$DIMTAD
 70
     1
  9
$DIMZIN
 70
     8
  9
$DIMBLK
  1
Open30
  9
$DIMASO
 70
     1
  9
$DIMSHO
 70
     1
  9
$DIMPOST
  1

  9
$DIMAPOST
  1

  9
$DIMALT
 70
     0
  9
$DIMALTD
 70
     3
  9
$DIMALTF
 40
0.03937007874016
  9
$DIMLFAC
 40
1.0
  9
$DIMTOFL
 70
     1
  9
$DIMTVP
 40
0.0
  9
$DIMTIX
 70
     0
  9
$DIMSOXD
 70
     0
  9
$DIMSAH
 70
     0
  9
$DIMBLK1
  1

  9
$DIMBLK2
  1

  9
$DIMSTYLE
  2
Annotative
  9
$DIMCLRD
 70
     0
  9
$DIMCLRE
 70
     0
  9
$DIMCLRT
 70
     0
  9
$DIMTFAC
 40
1.0
  9
$DIMGAP
 40
0.5
  9
$DIMJUST
 70
     0
  9
$DIMSD1
 70
     0
  9
$DIMSD2
 70
     0
  9
$DIMTOLJ
 70
     0
  9
$DIMTZIN
 70
     8
  9
$DIMALTZ
 70
     0
  9
$DIMALTTZ
 70
     0
  9
$DIMUPT
 70
     0
  9
$DIMDEC
 70
     2
  9
$DIMTDEC
 70
     2
  9
$DIMALTU
 70
     2
  9
$DIMALTTD
 70
     3
  9
$DIMTXSTY
  7
Standard
  9
$DIMAUNIT
 70
     0
  9
$DIMADEC
 70
     0
  9
$DIMALTRND
 40
0.0
  9
$DIMAZIN
 70
     0
  9
$DIMDSEP
 70
    44
  9
$DIMATFIT
 70
     3
  9
$DIMFRAC
 70
     0
  9
$DIMLDRBLK
  1
Open30
  9
$DIMLUNIT
 70
     2
  9
$DIMLWD
 70
    -2
  9
$DIMLWE
 70
    -2
  9
$DIMTMOVE
 70
     0
  9
$DIMFXL
 40
1.0
  9
$DIMFXLON
 70
     0
  9
$DIMJOGANG
 40
0.7853981633974483
  9
$DIMTFILL
 70
     0
  9
$DIMTFILLCLR
 70
     0
  9
$DIMARCSYM
 70
     0
  9
$DIMLTYPE
  6

  9
$DIMLTEX1
  6

  9
$DIMLTEX2
  6

  9
$DIMTXTDIRECTION
 70
     0
  9
$LUNITS
 70
     2
  9
$LUPREC
 70
     4
  9
$SKETCHINC
 40
1.0
  9
$FILLETRAD
 40
10.0
  9
$AUNITS
 70
     0
  9
$AUPREC
 70
     0
  9
$MENU
  1
.
  9
$ELEVATION
 40
0.0
  9
$PELEVATION
 40
0.0
  9
$THICKNESS
 40
0.0
  9
$LIMCHECK
 70
     0
  9
$CHAMFERA
 40
0.0
  9
$CHAMFERB
 40
0.0
  9
$CHAMFERC
 40
0.0
  9
$CHAMFERD
 40
0.0
  9
$SKPOLY
 70
     0
  9
$TDCREATE
 40
2457413.695914456
  9
$TDUCREATE
 40
2457413.320914456
  9
$TDUPDATE
 40
2459209.463340347
  9
$TDUUPDATE
 40
2459209.088340347
  9
$TDINDWG
 40
0.7139984954
  9
$TDUSRTIMER
 40
0.7139984722
  9
$USRTIMER
 70
     1
  9
$ANGBASE
 50
0.0
  9
$ANGDIR
 70
     0
  9
$PDMODE
 70
     0
  9
$PDSIZE
 40
0.0
  9
$PLINEWID
 40
0.0
  9
$SPLFRAME
 70
     0
  9
$SPLINETYPE
 70
     6
  9
$SPLINESEGS
 70
     8
  9
$HANDSEED
  5
2692
  9
$SURFTAB1
 70
     6
  9
$SURFTAB2
 70
     6
  9
$SURFTYPE
 70
     6
  9
$SURFU
 70
     6
  9
$SURFV
 70
     6
  9
$UCSBASE
  2

  9
$UCSNAME
  2

  9
$UCSORG
 10
0.0
 20
0.0
 30
0.0
  9
$UCSXDIR
 10
1.0
 20
0.0
 30
0.0
  9
$UCSYDIR
 10
0.0
 20
1.0
 30
0.0
  9
$UCSORTHOREF
  2

  9
$UCSORTHOVIEW
 70
     0
  9
$UCSORGTOP
 10
0.0
 20
0.0
 30
0.0
  9
$UCSORGBOTTOM
 10
0.0
 20
0.0
 30
0.0
  9
$UCSORGLEFT
 10
0.0
 20
0.0
 30
0.0
  9
$UCSORGRIGHT
 10
0.0
 20
0.0
 30
0.0
  9
$UCSORGFRONT
 10
0.0
 20
0.0
 30
0.0
  9
$UCSORGBACK
 10
0.0
 20
0.0
 30
0.0
  9
$PUCSBASE
  2

  9
$PUCSNAME
  2

  9
$PUCSORG
 10
0.0
 20
0.0
 30
0.0
  9
$PUCSXDIR
 10
1.0
 20
0.0
 30
0.0
  9
$PUCSYDIR
 10
0.0
 20
1.0
 30
0.0
  9
$PUCSORTHOREF
  2

  9
$PUCSORTHOVIEW
 70
     0
  9
$PUCSORGTOP
 10
0.0
 20
0.0
 30
0.0
  9
$PUCSORGBOTTOM
 10
0.0
 20
0.0
 30
0.0
  9
$PUCSORGLEFT
 10
0.0
 20
0.0
 30
0.0
  9
$PUCSORGRIGHT
 10
0.0
 20
0.0
 30
0.0
  9
$PUCSORGFRONT
 10
0.0
 20
0.0
 30
0.0
  9
$PUCSORGBACK
 10
0.0
 20
0.0
 30
0.0
  9
$USERI1
 70
     0
  9
$USERI2
 70
     0
  9
$USERI3
 70
     0
  9
$USERI4
 70
     0
  9
$USERI5
 70
     0
  9
$USERR1
 40
0.0
  9
$USERR2
 40
0.0
  9
$USERR3
 40
0.0
  9
$USERR4
 40
0.0
  9
$USERR5
 40
0.0
  9
$WORLDVIEW
 70
     1
  9
$SHADEDGE
 70
     3
  9
$SHADEDIF
 70
    70
  9
$TILEMODE
 70
     1
  9
$MAXACTVP
 70
    64
  9
$PINSBASE
 10
0.0
 20
0.0
 30
0.0
  9
$PLIMCHECK
 70
     0
  9
$PEXTMIN
 10
-5.001443576905217
 20
-5.013487853573337
 30
-0.0000000349181948
  9
$PEXTMAX
 10
205.0128202094853
 20
292.0181307544226
 30
0.0000000814935746
  9
$PLIMMIN
 10
-5.027082920074462
 20
-5.027099609375
  9
$PLIMMAX
 10
204.9462447166443
 20
291.8988952636719
  9
$UNITMODE
 70
     0
  9
$VISRETAIN
 70
     1
  9
$PLINEGEN
 70
     0
  9
$PSLTSCALE
 70
     1
  9
$TREEDEPTH
 70
  3020
  9
$CMLSTYLE
  2
Standard
  9
$CMLJUST
 70
     0
  9
$CMLSCALE
 40
20.0
  9
$PROXYGRAPHICS
 70
     1
  9
$MEASUREMENT
 70
     1
  9
$CELWEIGHT
370
    -1
  9
$ENDCAPS
280
     0
  9
$JOINSTYLE
280
     0
  9
$LWDISPLAY
290
     0
  9
$INSUNITS
 70
     4
  9
$HYPERLINKBASE
  1

  9
$STYLESHEET
  1

  9
$XEDIT
290
     1
  9
$CEPSNTYPE
380
     0
  9
$PSTYLEMODE
290
     1
  9
$FINGERPRINTGUID
  2
{DF4ACD2C-B106-45B5-A4D6-E2AC04F839BF}
  9
$VERSIONGUID
  2
{06662952-C93B-48DB-B1EC-1846A7540E0D}
  9
$EXTNAMES
290
     1
  9
$PSVPSCALE
 40
0.0
  9
$OLESTARTUP
290
     0
  9
$SORTENTS
280
   127
  9
$INDEXCTL
280
     0
  9
$HIDETEXT
280
     1
  9
$XCLIPFRAME
280
     2
  9
$HALOGAP
280
     0
  9
$OBSCOLOR
 70
   257
  9
$OBSLTYPE
280
     0
  9
$INTERSECTIONDISPLAY
280
     0
  9
$INTERSECTIONCOLOR
 70
   257
  9
$DIMASSOC
280
     2
  9
$PROJECTNAME
  1

  9
$CAMERADISPLAY
290
     0
  9
$LENSLENGTH
 40
50.0
  9
$CAMERAHEIGHT
 40
0.0
  9
$STEPSPERSEC
 40
2.0
  9
$STEPSIZE
 40
6.0
  9
$3DDWFPREC
 40
2.0
  9
$PSOLWIDTH
 40
5.0
  9
$PSOLHEIGHT
 40
80.0
  9
$LOFTANG1
 40
1.570796326794896
  9
$LOFTANG2
 40
1.570796326794896
  9
$LOFTMAG1
 40
0.0
  9
$LOFTMAG2
 40
0.0
  9
$LOFTPARAM
 70
     7
  9
$LOFTNORMALS
280
     1
  9
$LATITUDE
 40
37.795
  9
$LONGITUDE
 40
-122.394
  9
$NORTHDIRECTION
 40
0.0
  9
$TIMEZONE
 70
 -8000
  9
$LIGHTGLYPHDISPLAY
280
     1
  9
$TILEMODELIGHTSYNCH
280
     1
  9
$CMATERIAL
347
EC
  9
$SOLIDHIST
280
     0
  9
$SHOWHIST
280
     1
  9
$DWFFRAME
280
     2
  9
$DGNFRAME
280
     0
  9
$REALWORLDSCALE
290
     1
  9
$INTERFERECOLOR
 62
     1
  9
$INTERFEREOBJVS
345
F9
  9
$INTERFEREVPVS
346
F6
  9
$CSHADOW
280
     0
  9
$SHADOWPLANELOCATION
 40
0.0
  0
ENDSEC
  0
SECTION
  2
CLASSES
  0
CLASS
  1
ACDBDICTIONARYWDFLT
  2
AcDbDictionaryWithDefault
  3
ObjectDBX Classes
 90
        0
 91
        1
280
     0
281
     0
  0
CLASS
  1
DICTIONARYVAR
  2
AcDbDictionaryVar
  3
ObjectDBX Classes
 90
        0
 91
       10
280
     0
281
     0
  0
CLASS
  1
TABLESTYLE
  2
AcDbTableStyle
  3
ObjectDBX Classes
 90
     4095
 91
        1
280
     0
281
     0
  0
CLASS
  1
MATERIAL
  2
AcDbMaterial
  3
ObjectDBX Classes
 90
     1153
 91
        3
280
     0
281
     0
  0
CLASS
  1
VISUALSTYLE
  2
AcDbVisualStyle
  3
ObjectDBX Classes
 90
     4095
 91
       24
280
     0
281
     0
  0
CLASS
  1
SCALE
  2
AcDbScale
  3
ObjectDBX Classes
 90
     1153
 91
       17
280
     0
281
     0
  0
CLASS
  1
MLEADERSTYLE
  2
AcDbMLeaderStyle
  3
ACDB_MLEADERSTYLE_CLASS
 90
     4095
 91
        2
280
     0
281
     0
  0
CLASS
  1
CELLSTYLEMAP
  2
AcDbCellStyleMap
  3
ObjectDBX Classes
 90
     1152
 91
        1
280
     0
281
     0
  0
CLASS
  1
EXACXREFPANELOBJECT
  2
ExAcXREFPanelObject
  3
EXAC_ESW
 90
     1025
 91
        0
280
     0
281
     0
  0
CLASS
  1
NPOCOLLECTION
  2
AcDbImpNonPersistentObjectsCollection
  3
ObjectDBX Classes
 90
     1153
 91
        0
280
     0
281
     0
  0
CLASS
  1
LAYER_INDEX
  2
AcDbLayerIndex
  3
ObjectDBX Classes
 90
        0
 91
        0
280
     0
281
     0
  0
CLASS
  1
SPATIAL_INDEX
  2
AcDbSpatialIndex
  3
ObjectDBX Classes
 90
        0
 91
        0
280
     0
281
     0
  0
CLASS
  1
IDBUFFER
  2
AcDbIdBuffer
  3
ObjectDBX Classes
 90
        0
 91
        0
280
     0
281
     0
  0
CLASS
  1
ACDBSECTIONVIEWSTYLE
  2
AcDbSectionViewStyle
  3
ObjectDBX Classes
 90
     1025
 91
        1
280
     0
281
     0
  0
CLASS
  1
ACDBDETAILVIEWSTYLE
  2
AcDbDetailViewStyle
  3
ObjectDBX Classes
 90
     1025
 91
        1
280
     0
281
     0
  0
CLASS
  1
SORTENTSTABLE
  2
AcDbSortentsTable
  3
ObjectDBX Classes
 90
        0
 91
        1
280
     0
281
     0
  0
CLASS
  1
ACDB_TEXTOBJECTCONTEXTDATA_CLASS
  2
AcDbTextObjectContextData
  3
ObjectDBX Classes
 90
     1153
 91
       19
280
     0
281
     0
  0
CLASS
  1
ACDB_ALDIMOBJECTCONTEXTDATA_CLASS
  2
AcDbAlignedDimensionObjectContextData
  3
ObjectDBX Classes
 90
     1153
 91
       34
280
     0
281
     0
  0
CLASS
  1
DIMASSOC
  2
AcDbDimAssoc
  3
"AcDbDimAssoc|Product Desc:     AcDim ARX App For Dimension|Company:          Autodesk, Inc.|WEB Address:      www.autodesk.com"
 90
        0
 91
       34
280
     0
281
     0
  0
CLASS
  1
ACDB_LEADEROBJECTCONTEXTDATA_CLASS
  2
AcDbLeaderObjectContextData
  3
ObjectDBX Classes
 90
     1153
 91
       10
280
     0
281
     0
  0
CLASS
  1
ARC_DIMENSION
  2
AcDbArcDimension
  3
ObjectDBX Classes
 90
     1025
 91
        0
280
     0
281
     1
  0
CLASS
  1
ACDB_ANGDIMOBJECTCONTEXTDATA_CLASS
  2
AcDbAngularDimensionObjectContextData
  3
ObjectDBX Classes
 90
     1153
 91
        0
280
     0
281
     0
  0
ENDSEC
  0
SECTION
  2
TABLES
  0
TABLE
  2
VPORT
  5
8
330
0
100
AcDbSymbolTable
 70
     1
  0
VPORT
  5
EA
330
8
100
AcDbSymbolTableRecord
100
AcDbViewportTableRecord
  2
*Active
 70
     0
 10
0.0
 20
0.0
 11
1.0
 21
1.0
 12
2099.88282531719
 22
2970.066389213394
 13
0.0
 23
0.0
 14
10.0
 24
10.0
 15
10.0
 25
10.0
 16
0.0
 26
0.0
 36
1.0
 17
0.0
 27
0.0
 37
0.0
 40
5583.556971508315
 41
2.445169712793733
 42
50.0
 43
0.0
 44
0.0
 50
0.0
 51
0.0
 71
     0
 72
  1000
 73
     1
 74
     3
 75
     0
 76
     1
 77
     0
 78
     0
281
     0
 65
     1
110
0.0
120
0.0
130
0.0
111
1.0
121
0.0
131
0.0
112
0.0
122
1.0
132
0.0
 79
     0
146
0.0
348
F5
 60
     3
 61
     5
292
     1
282
     1
141
0.0
142
0.0
 63
   250
421
  3355443
1001
ACAD_NAV_VCDISPLAY
1070
     3
  0
ENDTAB
  0
TABLE
  2
LTYPE
  5
5
330
0
100
AcDbSymbolTable
 70
     4
  0
LTYPE
  5
14
330
5
100
AcDbSymbolTableRecord
100
AcDbLinetypeTableRecord
  2
ByBlock
 70
     0
  3

 72
    65
 73
     0
 40
0.0
  0
LTYPE
  5
15
330
5
100
AcDbSymbolTableRecord
100
AcDbLinetypeTableRecord
  2
ByLayer
 70
     0
  3

 72
    65
 73
     0
 40
0.0
  0
LTYPE
  5
16
330
5
100
AcDbSymbolTableRecord
100
AcDbLinetypeTableRecord
  2
Continuous
 70
     0
  3
Solid line
 72
    65
 73
     0
 40
0.0
  0
LTYPE
  5
250
330
5
100
AcDbSymbolTableRecord
100
AcDbLinetypeTableRecord
  2
JIS_08_11
 70
     0
  3
1SASEN11 ___ _ ___ _ ___ _ ___ _ ___ _ ___
 72
    65
 73
     4
 40
12.8
 49
11.0
 74
     0
 49
-0.6
 74
     0
 49
0.6
 74
     0
 49
-0.6
 74
     0
  0
LTYPE
  5
17AD
330
5
100
AcDbSymbolTableRecord
100
AcDbLinetypeTableRecord
  2
JIS_02_0.7
 70
     0
  3
HIDDEN0.75 _ _ _ _ _ _ _ _ _ _ _ _ _ _ _ _ _
 72
    65
 73
     2
 40
1.35
 49
0.75
 74
     0
 49
-0.6
 74
     0
  0
ENDTAB
  0
TABLE
  2
LAYER
  5
2
102
{ACAD_XDICTIONARY
360
1FF
102
}
330
0
100
AcDbSymbolTable
 70
    12
  0
LAYER
  5
10
102
{ACAD_XDICTIONARY
360
13C
102
}
330
2
100
AcDbSymbolTableRecord
100
AcDbLayerTableRecord
  2
0
 70
     0
 62
     7
  6
Continuous
370
    -3
390
F
347
EE
348
0
  0
LAYER
  5
242
330
2
100
AcDbSymbolTableRecord
100
AcDbLayerTableRecord
  2
図面枠
 70
     0
 62
     2
  6
Continuous
370
    -3
390
F
347
EE
348
0
1001
AcAecLayerStandard
1000

1000

1001
AcCmTransparency
1071
        0
  0
LAYER
  5
245
330
2
100
AcDbSymbolTableRecord
100
AcDbLayerTableRecord
  2
タイトル枠
 70
     0
 62
     2
  6
Continuous
370
    -3
390
F
347
EE
348
0
1001
AcAecLayerStandard
1000

1000

1001
AcCmTransparency
1071
        0
  0
LAYER
  5
246
330
2
100
AcDbSymbolTableRecord
100
AcDbLayerTableRecord
  2
構造線
 70
     0
 62
     7
  6
Continuous
370
    15
390
F
347
EE
348
0
1001
AcAecLayerStandard
1000

1000

1001
AcCmTransparency
1071
        0
  0
LAYER
  5
247
330
2
100
AcDbSymbolTableRecord
100
AcDbLayerTableRecord
  2
寸法線
 70
     0
 62
     5
  6
Continuous
370
     9
390
F
347
EE
348
0
1001
AcAecLayerStandard
1000

1000

1001
AcCmTransparency
1071
        0
  0
LAYER
  5
248
330
2
100
AcDbSymbolTableRecord
100
AcDbLayerTableRecord
  2
文字
 70
     0
 62
     7
  6
Continuous
370
     9
390
F
347
EE
348
0
1001
AcAecLayerStandard
1000

1000

1001
AcCmTransparency
1071
        0
  0
LAYER
  5
249
330
2
100
AcDbSymbolTableRecord
100
AcDbLayerTableRecord
  2
配筋線
 70
     0
 62
     1
  6
Continuous
370
    13
390
F
347
EE
348
0
1001
AcAecLayerStandard
1000

1000

1001
AcCmTransparency
1071
        0
  0
LAYER
  5
24A
330
2
100
AcDbSymbolTableRecord
100
AcDbLayerTableRecord
  2
配筋寸法線
 70
     0
 62
     6
  6
Continuous
370
     9
390
F
347
EE
348
0
1001
AcAecLayerStandard
1000

1000

1001
AcCmTransparency
1071
        0
  0
LAYER
  5
24B
330
2
100
AcDbSymbolTableRecord
100
AcDbLayerTableRecord
  2
配筋注釈
 70
     0
 62
     7
  6
Continuous
370
     9
390
F
347
EE
348
0
1001
AcAecLayerStandard
1000

1000

1001
AcCmTransparency
1071
        0
  0
LAYER
  5
24C
330
2
100
AcDbSymbolTableRecord
100
AcDbLayerTableRecord
  2
中心線
 70
     0
 62
     2
  6
JIS_08_11
370
     9
390
F
347
EE
348
0
1001
AcAecLayerStandard
1000

1000

1001
AcCmTransparency
1071
        0
  0
LAYER
  5
2DB
330
2
100
AcDbSymbolTableRecord
100
AcDbLayerTableRecord
  2
Defpoints
 70
     0
 62
     7
  6
Continuous
290
     0
370
    -3
390
F
347
EE
348
0
  0
LAYER
  5
17AC
330
2
100
AcDbSymbolTableRecord
100
AcDbLayerTableRecord
  2
隠れ線
 70
     0
 62
     4
  6
JIS_02_0.7
370
     9
390
F
347
EE
348
0
1001
AcAecLayerStandard
1000

1000

1001
AcCmTransparency
1071
        0
  0
ENDTAB
  0
TABLE
  2
STYLE
  5
3
330
0
100
AcDbSymbolTable
 70
     3
  0
STYLE
  5
11
330
3
100
AcDbSymbolTableRecord
100
AcDbTextStyleTableRecord
  2
Standard
 70
     0
 40
0.0
 41
1.0
 50
0.0
 71
     0
 42
2.5
  3
HGPGothicM.ttf
  4

1001
ACAD
1000
HGPGothicM
1071
    32818
  0
STYLE
  5
132
330
3
100
AcDbSymbolTableRecord
100
AcDbTextStyleTableRecord
  2
Annotative
 70
     0
 40
0.0
 41
1.0
 50
0.0
 71
     0
 42
2.0
  3
HGPGothicM.ttf
  4

1001
AcadAnnotative
1000
AnnotativeData
1002
{
1070
     1
1070
     1
1002
}
1001
ACAD
1000
HGPGothicM
1071
    32818
  0
STYLE
  5
24F
330
3
100
AcDbSymbolTableRecord
100
AcDbTextStyleTableRecord
  2

 70
     1
 40
0.0
 41
1.0
 50
0.0
 71
     0
 42
2.5
  3
ltypeshp.shx
  4

  0
ENDTAB
  0
TABLE
  2
VIEW
  5
6
330
0
100
AcDbSymbolTable
 70
     1
  0
ENDTAB
  0
TABLE
  2
UCS
  5
7
330
0
100
AcDbSymbolTable
 70
     0
  0
ENDTAB
  0
TABLE
  2
APPID
  5
9
330
0
100
AcDbSymbolTable
 70
    12
  0
APPID
  5
12
330
9
100
AcDbSymbolTableRecord
100
AcDbRegAppTableRecord
  2
ACAD
 70
     0
  0
APPID
  5
9E
330
9
100
AcDbSymbolTableRecord
100
AcDbRegAppTableRecord
  2
ACAD_PSEXT
 70
     0
  0
APPID
  5
133
330
9
100
AcDbSymbolTableRecord
100
AcDbRegAppTableRecord
  2
AcadAnnoPO
 70
     0
  0
APPID
  5
134
330
9
100
AcDbSymbolTableRecord
100
AcDbRegAppTableRecord
  2
AcadAnnotative
 70
     0
  0
APPID
  5
135
330
9
100
AcDbSymbolTableRecord
100
AcDbRegAppTableRecord
  2
ACAD_DSTYLE_DIMJAG
 70
     0
  0
APPID
  5
136
330
9
100
AcDbSymbolTableRecord
100
AcDbRegAppTableRecord
  2
ACAD_DSTYLE_DIMTALN
 70
     0
  0
APPID
  5
165
330
9
100
AcDbSymbolTableRecord
100
AcDbRegAppTableRecord
  2
ACAD_MLEADERVER
 70
     0
  0
APPID
  5
217
330
9
100
AcDbSymbolTableRecord
100
AcDbRegAppTableRecord
  2
ACAD_NAV_VCDISPLAY
 70
     0
  0
APPID
  5
243
330
9
100
AcDbSymbolTableRecord
100
AcDbRegAppTableRecord
  2
AcAecLayerStandard
 70
     0
  0
APPID
  5
244
330
9
100
AcDbSymbolTableRecord
100
AcDbRegAppTableRecord
  2
AcCmTransparency
 70
     0
  0
APPID
  5
271
330
9
100
AcDbSymbolTableRecord
100
AcDbRegAppTableRecord
  2
ACAD_EXEMPT_FROM_CAD_STANDARDS
 70
     0
  0
APPID
  5
16F8
330
9
100
AcDbSymbolTableRecord
100
AcDbRegAppTableRecord
  2
AcadAnnoMonitorAlertIconDisabled
 70
     0
  0
ENDTAB
  0
TABLE
  2
DIMSTYLE
  5
A
330
0
100
AcDbSymbolTable
 70
     3
100
AcDbDimStyleTable
 71
     2
340
137
340
27
  0
DIMSTYLE
105
1B0
330
A
100
AcDbSymbolTableRecord
100
AcDbDimStyleTableRecord
  2
Standard
 70
     0
340
11
  0
DIMSTYLE
105
137
102
{ACAD_REACTORS
330
1A37
330
1A53
330
1A65
330
1A77
330
1AB1
330
1AC3
330
1AD5
330
1AE7
330
1AF9
330
1B0B
330
1B35
330
1B47
330
1B5B
330
1B85
330
1B95
330
1BA9
330
1BBB
330
1BCB
330
1BDE
330
1BF0
330
1C1A
330
1C2C
330
1C40
330
1C7B
330
1C8D
330
1C9F
330
1D08
330
1D18
330
1D2A
330
1D3D
330
1D58
330
1D6C
330
1D7E
330
1D92
330
1FAC
330
1FB2
330
1FBF
330
1FC4
330
1FED
330
1FF2
330
2002
330
2007
330
204A
330
2059
102
}
330
A
100
AcDbSymbolTableRecord
100
AcDbDimStyleTableRecord
  2
Annotative
 70
     0
 40
0.0
 41
1.0
 42
1.0
 43
3.75
 44
0.5
 73
     0
 74
     0
 77
     1
 78
     8
140
2.0
141
2.5
143
0.03937007874016
147
0.5
171
     3
172
     1
271
     2
272
     2
274
     3
278
    44
283
     0
284
     8
340
11
341
2E9
342
2E9
1001
AcadAnnotative
1000
AnnotativeData
1002
{
1070
     1
1070
     1
1002
}
1001
ACAD_DSTYLE_DIMJAG
1070
   388
1040
1.5
1001
ACAD_DSTYLE_DIMTALN
1070
   392
1070
     0
  0
DIMSTYLE
105
27
330
A
100
AcDbSymbolTableRecord
100
AcDbDimStyleTableRecord
  2
ISO-25
 70
     0
 41
2.5
 42
0.625
 43
3.75
 44
1.25
 73
     0
 74
     0
 77
     1
 78
     8
140
2.5
141
2.5
143
0.03937007874016
147
0.625
171
     3
172
     1
271
     2
272
     2
274
     3
278
    44
283
     0
284
     8
340
11
  0
ENDTAB
  0
TABLE
  2
BLOCK_RECORD
  5
1
330
0
100
AcDbSymbolTable
 70
    35
  0
BLOCK_RECORD
  5
1F
102
{ACAD_XDICTIONARY
360
1CE
102
}
330
1
100
AcDbSymbolTableRecord
100
AcDbBlockTableRecord
  2
*Model_Space
340
22
 70
     0
280
     1
281
     0
  0
BLOCK_RECORD
  5
197E
330
1
100
AcDbSymbolTableRecord
100
AcDbBlockTableRecord
  2
*Paper_Space
340
197F
 70
     0
280
     1
281
     0
  0
BLOCK_RECORD
  5
2E9
330
1
100
AcDbSymbolTableRecord
100
AcDbBlockTableRecord
  2
_Open30
340
0
102
{BLKREFS
331
25F7
331
25F8
331
2603
331
2604
331
260B
331
260C
331
2617
331
2618
331
261F
331
2620
331
2628
331
2629
331
2633
331
2634
331
263E
331
263F
331
2647
331
2648
331
2650
331
2651
331
265C
331
265D
331
2664
331
2665
331
2670
331
2671
331
2678
331
2679
331
253C
331
253D
331
2545
331
2546
331
2551
331
2552
331
2559
331
255A
331
2564
331
2565
331
256E
331
256F
331
2577
331
2578
331
2580
331
2581
331
2589
331
258A
331
2592
331
2593
331
259D
331
259E
331
25A6
331
25A7
331
25AF
331
25B0
331
25B8
331
25B9
331
25C1
331
25C2
331
25CA
331
25CB
331
25D3
331
25D4
331
25DC
331
25DD
331
25E5
331
25E6
331
25EE
331
25EF
102
}
 70
     0
280
     1
281
     0
  0
BLOCK_RECORD
  5
1A3C
330
1
100
AcDbSymbolTableRecord
100
AcDbBlockTableRecord
  2
*D1
340
0
 70
     0
280
     1
281
     0
  0
BLOCK_RECORD
  5
1A58
330
1
100
AcDbSymbolTableRecord
100
AcDbBlockTableRecord
  2
*D2
340
0
 70
     0
280
     1
281
     0
  0
BLOCK_RECORD
  5
1A6A
330
1
100
AcDbSymbolTableRecord
100
AcDbBlockTableRecord
  2
*D3
340
0
 70
     0
280
     1
281
     0
  0
BLOCK_RECORD
  5
1A7C
330
1
100
AcDbSymbolTableRecord
100
AcDbBlockTableRecord
  2
*D4
340
0
 70
     0
280
     1
281
     0
  0
BLOCK_RECORD
  5
1AB6
330
1
100
AcDbSymbolTableRecord
100
AcDbBlockTableRecord
  2
*D5
340
0
 70
     0
280
     1
281
     0
  0
BLOCK_RECORD
  5
1AC8
330
1
100
AcDbSymbolTableRecord
100
AcDbBlockTableRecord
  2
*D6
340
0
 70
     0
280
     1
281
     0
  0
BLOCK_RECORD
  5
1ADA
330
1
100
AcDbSymbolTableRecord
100
AcDbBlockTableRecord
  2
*D7
340
0
 70
     0
280
     1
281
     0
  0
BLOCK_RECORD
  5
1AEC
330
1
100
AcDbSymbolTableRecord
100
AcDbBlockTableRecord
  2
*D8
340
0
 70
     0
280
     1
281
     0
  0
BLOCK_RECORD
  5
1AFE
330
1
100
AcDbSymbolTableRecord
100
AcDbBlockTableRecord
  2
*D9
340
0
 70
     0
280
     1
281
     0
  0
BLOCK_RECORD
  5
1B10
330
1
100
AcDbSymbolTableRecord
100
AcDbBlockTableRecord
  2
*D10
340
0
 70
     0
280
     1
281
     0
  0
BLOCK_RECORD
  5
1B3A
330
1
100
AcDbSymbolTableRecord
100
AcDbBlockTableRecord
  2
*D11
340
0
 70
     0
280
     1
281
     0
  0
BLOCK_RECORD
  5
1B4C
330
1
100
AcDbSymbolTableRecord
100
AcDbBlockTableRecord
  2
*D12
340
0
 70
     0
280
     1
281
     0
  0
BLOCK_RECORD
  5
1B60
330
1
100
AcDbSymbolTableRecord
100
AcDbBlockTableRecord
  2
*D13
340
0
 70
     0
280
     1
281
     0
  0
BLOCK_RECORD
  5
1B8A
330
1
100
AcDbSymbolTableRecord
100
AcDbBlockTableRecord
  2
*D14
340
0
 70
     0
280
     1
281
     0
  0
BLOCK_RECORD
  5
1B9A
330
1
100
AcDbSymbolTableRecord
100
AcDbBlockTableRecord
  2
*D15
340
0
 70
     0
280
     1
281
     0
  0
BLOCK_RECORD
  5
1BAE
330
1
100
AcDbSymbolTableRecord
100
AcDbBlockTableRecord
  2
*D16
340
0
 70
     0
280
     1
281
     0
  0
BLOCK_RECORD
  5
1BC0
330
1
100
AcDbSymbolTableRecord
100
AcDbBlockTableRecord
  2
*D17
340
0
 70
     0
280
     1
281
     0
  0
BLOCK_RECORD
  5
1BD0
330
1
100
AcDbSymbolTableRecord
100
AcDbBlockTableRecord
  2
*D18
340
0
 70
     0
280
     1
281
     0
  0
BLOCK_RECORD
  5
1BE3
330
1
100
AcDbSymbolTableRecord
100
AcDbBlockTableRecord
  2
*D19
340
0
 70
     0
280
     1
281
     0
  0
BLOCK_RECORD
  5
1BF5
330
1
100
AcDbSymbolTableRecord
100
AcDbBlockTableRecord
  2
*D20
340
0
 70
     0
280
     1
281
     0
  0
BLOCK_RECORD
  5
1C1F
330
1
100
AcDbSymbolTableRecord
100
AcDbBlockTableRecord
  2
*D21
340
0
 70
     0
280
     1
281
     0
  0
BLOCK_RECORD
  5
1C31
330
1
100
AcDbSymbolTableRecord
100
AcDbBlockTableRecord
  2
*D22
340
0
 70
     0
280
     1
281
     0
  0
BLOCK_RECORD
  5
1C45
330
1
100
AcDbSymbolTableRecord
100
AcDbBlockTableRecord
  2
*D23
340
0
 70
     0
280
     1
281
     0
  0
BLOCK_RECORD
  5
1C80
330
1
100
AcDbSymbolTableRecord
100
AcDbBlockTableRecord
  2
*D24
340
0
 70
     0
280
     1
281
     0
  0
BLOCK_RECORD
  5
1C92
330
1
100
AcDbSymbolTableRecord
100
AcDbBlockTableRecord
  2
*D25
340
0
 70
     0
280
     1
281
     0
  0
BLOCK_RECORD
  5
1CA4
330
1
100
AcDbSymbolTableRecord
100
AcDbBlockTableRecord
  2
*D26
340
0
 70
     0
280
     1
281
     0
  0
BLOCK_RECORD
  5
1D0D
330
1
100
AcDbSymbolTableRecord
100
AcDbBlockTableRecord
  2
*D27
340
0
 70
     0
280
     1
281
     0
  0
BLOCK_RECORD
  5
1D1D
330
1
100
AcDbSymbolTableRecord
100
AcDbBlockTableRecord
  2
*D28
340
0
 70
     0
280
     1
281
     0
  0
BLOCK_RECORD
  5
1D2F
330
1
100
AcDbSymbolTableRecord
100
AcDbBlockTableRecord
  2
*D29
340
0
 70
     0
280
     1
281
     0
  0
BLOCK_RECORD
  5
1D42
330
1
100
AcDbSymbolTableRecord
100
AcDbBlockTableRecord
  2
*D30
340
0
 70
     0
280
     1
281
     0
  0
BLOCK_RECORD
  5
1D5D
330
1
100
AcDbSymbolTableRecord
100
AcDbBlockTableRecord
  2
*D31
340
0
 70
     0
280
     1
281
     0
  0
BLOCK_RECORD
  5
1D71
330
1
100
AcDbSymbolTableRecord
100
AcDbBlockTableRecord
  2
*D32
340
0
 70
     0
280
     1
281
     0
  0
BLOCK_RECORD
  5
1D83
330
1
100
AcDbSymbolTableRecord
100
AcDbBlockTableRecord
  2
*D33
340
0
 70
     0
280
     1
281
     0
  0
BLOCK_RECORD
  5
1D97
330
1
100
AcDbSymbolTableRecord
100
AcDbBlockTableRecord
  2
*D34
340
0
 70
     0
280
     1
281
     0
  0
ENDTAB
  0
ENDSEC
  0
SECTION
  2
BLOCKS
  0
BLOCK
  5
20
330
1F
100
AcDbEntity
  8
0
100
AcDbBlockBegin
  2
*Model_Space
 70
     0
 10
0.0
 20
0.0
 30
0.0
  3
*Model_Space
  1

  0
ENDBLK
  5
21
330
1F
100
AcDbEntity
  8
0
100
AcDbBlockEnd
  0
BLOCK
  5
1980
330
197E
100
AcDbEntity
 67
     1
  8
0
100
AcDbBlockBegin
  2
*Paper_Space
 70
     0
 10
0.0
 20
0.0
 30
0.0
  3
*Paper_Space
  1

  0
ENDBLK
  5
1981
330
197E
100
AcDbEntity
 67
     1
  8
0
100
AcDbBlockEnd
  0
BLOCK
  5
2ED
330
2E9
100
AcDbEntity
  8
0
100
AcDbBlockBegin
  2
_Open30
 70
     0
 10
0.0
 20
0.0
 30
0.0
  3
_Open30
  1

  0
LINE
  5
2EA
330
2E9
100
AcDbEntity
  8
0
  6
ByBlock
 62
     0
370
    -2
100
AcDbLine
 10
-1.0
 20
0.26794919
 30
0.0
 11
0.0
 21
0.0
 31
0.0
  0
LINE
  5
2EB
330
2E9
100
AcDbEntity
  8
0
  6
ByBlock
 62
     0
370
    -2
100
AcDbLine
 10
0.0
 20
0.0
 30
0.0
 11
-1.0
 21
-0.26794919
 31
0.0
  0
LINE
  5
2EC
330
2E9
100
AcDbEntity
  8
0
  6
ByBlock
 62
     0
370
    -2
100
AcDbLine
 10
0.0
 20
0.0
 30
0.0
 11
-1.0
 21
0.0
 31
0.0
  0
ENDBLK
  5
2EE
330
2E9
100
AcDbEntity
  8
0
100
AcDbBlockEnd
  0
BLOCK
  5
1A3D
330
1A3C
100
AcDbEntity
  8
0
100
AcDbBlockBegin
  2
*D1
 70
     1
 10
0.0
 20
0.0
 30
0.0
  3
*D1
  1

  0
LINE
  5
25AC
330
1A3C
100
AcDbEntity
  8
寸法線
 62
     0
440
 16777216
370
    -2
100
AcDbLine
 10
1030.000000000001
 20
4819.999999999999
 30
0.0
 11
730.0000000000007
 21
4819.999999999999
 31
0.0
  0
LINE
  5
25AD
330
1A3C
100
AcDbEntity
  8
寸法線
 62
     0
440
 16777216
370
    -2
100
AcDbLine
 10
880.0000000000009
 20
4969.999999999998
 30
0.0
 11
730.0000000000009
 21
4969.999999999998
 31
0.0
  0
LINE
  5
25AE
330
1A3C
100
AcDbEntity
  8
寸法線
 62
     0
440
 16777216
370
    -2
100
AcDbLine
 10
740.0000000000008
 20
4839.999999999999
 30
0.0
 11
740.0000000000009
 21
4949.999999999999
 31
0.0
  0
INSERT
  5
25AF
330
1A3C
100
AcDbEntity
  8
寸法線
 62
     0
440
 16777216
370
    -2
100
AcDbBlockReference
  2
_Open30
 10
740.0000000000008
 20
4819.999999999999
 30
0.0
 41
20.0
 42
20.0
 43
20.0
 50
270.0
  0
INSERT
  5
25B0
330
1A3C
100
AcDbEntity
  8
寸法線
 62
     0
440
 16777216
370
    -2
100
AcDbBlockReference
  2
_Open30
 10
740.0000000000009
 20
4969.999999999998
 30
0.0
 41
20.0
 42
20.0
 43
20.0
 50
90.0
  0
MTEXT
  5
25B1
330
1A3C
100
AcDbEntity
  8
寸法線
 62
     0
440
 16777216
100
AcDbMText
 10
710.0000000000001
 20
4894.999999999999
 30
0.0
 40
40.0
 41
0.0
 46
0.0
 71
     5
 72
     1
  1
150
 11
0.0000000000000001
 21
1.0
 31
0.0
 73
     1
 44
1.0
  0
POINT
  5
25B2
330
1A3C
100
AcDbEntity
  8
Defpoints
 62
     0
440
 16777216
100
AcDbPoint
 10
1050.000000000001
 20
4819.999999999999
 30
0.0
  0
POINT
  5
25B3
330
1A3C
100
AcDbEntity
  8
Defpoints
 62
     0
440
 16777216
100
AcDbPoint
 10
900.0000000000008
 20
4969.999999999998
 30
0.0
  0
POINT
  5
25B4
330
1A3C
100
AcDbEntity
  8
Defpoints
 62
     0
440
 16777216
100
AcDbPoint
 10
740.0000000000009
 20
4969.999999999998
 30
0.0
  0
ENDBLK
  5
1A3E
330
1A3C
100
AcDbEntity
  8
0
100
AcDbBlockEnd
  0
BLOCK
  5
1A59
330
1A58
100
AcDbEntity
  8
0
100
AcDbBlockBegin
  2
*D2
 70
     1
 10
0.0
 20
0.0
 30
0.0
  3
*D2
  1

  0
LINE
  5
25B5
330
1A58
100
AcDbEntity
  8
寸法線
 62
     0
440
 16777216
370
    -2
100
AcDbLine
 10
1030.000000000001
 20
4819.999999999999
 30
0.0
 11
730.000000000001
 21
4819.999999999999
 31
0.0
  0
LINE
  5
25B6
330
1A58
100
AcDbEntity
  8
寸法線
 62
     0
440
 16777216
370
    -2
100
AcDbLine
 10
1030.000000000001
 20
4319.999999999998
 30
0.0
 11
730.0000000000009
 21
4319.999999999998
 31
0.0
  0
LINE
  5
25B7
330
1A58
100
AcDbEntity
  8
寸法線
 62
     0
440
 16777216
370
    -2
100
AcDbLine
 10
740.000000000001
 20
4799.999999999999
 30
0.0
 11
740.0000000000009
 21
4339.999999999998
 31
0.0
  0
INSERT
  5
25B8
330
1A58
100
AcDbEntity
  8
寸法線
 62
     0
440
 16777216
370
    -2
100
AcDbBlockReference
  2
_Open30
 10
740.000000000001
 20
4819.999999999999
 30
0.0
 41
20.0
 42
20.0
 43
20.0
 50
90.0
  0
INSERT
  5
25B9
330
1A58
100
AcDbEntity
  8
寸法線
 62
     0
440
 16777216
370
    -2
100
AcDbBlockReference
  2
_Open30
 10
740.0000000000009
 20
4319.999999999998
 30
0.0
 41
20.0
 42
20.0
 43
20.0
 50
270.0
  0
MTEXT
  5
25BA
330
1A58
100
AcDbEntity
  8
寸法線
 62
     0
440
 16777216
100
AcDbMText
 10
710.0000000000002
 20
4569.999999999998
 30
0.0
 40
40.0
 41
0.0
 46
0.0
 71
     5
 72
     1
  1
500
 11
0.0000000000000001
 21
1.0
 31
0.0
 73
     1
 44
1.0
  0
POINT
  5
25BB
330
1A58
100
AcDbEntity
  8
Defpoints
 62
     0
440
 16777216
100
AcDbPoint
 10
1050.000000000001
 20
4819.999999999999
 30
0.0
  0
POINT
  5
25BC
330
1A58
100
AcDbEntity
  8
Defpoints
 62
     0
440
 16777216
100
AcDbPoint
 10
1050.000000000001
 20
4319.999999999998
 30
0.0
  0
POINT
  5
25BD
330
1A58
100
AcDbEntity
  8
Defpoints
 62
     0
440
 16777216
100
AcDbPoint
 10
740.0000000000009
 20
4319.999999999998
 30
0.0
  0
ENDBLK
  5
1A5A
330
1A58
100
AcDbEntity
  8
0
100
AcDbBlockEnd
  0
BLOCK
  5
1A6B
330
1A6A
100
AcDbEntity
  8
0
100
AcDbBlockBegin
  2
*D3
 70
     1
 10
0.0
 20
0.0
 30
0.0
  3
*D3
  1

  0
LINE
  5
25BE
330
1A6A
100
AcDbEntity
  8
寸法線
 62
     0
440
 16777216
370
    -2
100
AcDbLine
 10
1030.000000000001
 20
4319.999999999998
 30
0.0
 11
730.0000000000009
 21
4319.999999999998
 31
0.0
  0
LINE
  5
25BF
330
1A6A
100
AcDbEntity
  8
寸法線
 62
     0
440
 16777216
370
    -2
100
AcDbLine
 10
880.0000000000009
 20
4169.999999999999
 30
0.0
 11
730.0000000000009
 21
4169.999999999999
 31
0.0
  0
LINE
  5
25C0
330
1A6A
100
AcDbEntity
  8
寸法線
 62
     0
440
 16777216
370
    -2
100
AcDbLine
 10
740.0000000000009
 20
4299.999999999998
 30
0.0
 11
740.0000000000009
 21
4189.999999999999
 31
0.0
  0
INSERT
  5
25C1
330
1A6A
100
AcDbEntity
  8
寸法線
 62
     0
440
 16777216
370
    -2
100
AcDbBlockReference
  2
_Open30
 10
740.0000000000009
 20
4319.999999999998
 30
0.0
 41
20.0
 42
20.0
 43
20.0
 50
90.0
  0
INSERT
  5
25C2
330
1A6A
100
AcDbEntity
  8
寸法線
 62
     0
440
 16777216
370
    -2
100
AcDbBlockReference
  2
_Open30
 10
740.0000000000009
 20
4169.999999999999
 30
0.0
 41
20.0
 42
20.0
 43
20.0
 50
270.0
  0
MTEXT
  5
25C3
330
1A6A
100
AcDbEntity
  8
寸法線
 62
     0
440
 16777216
100
AcDbMText
 10
710.0000000000002
 20
4244.999999999998
 30
0.0
 40
40.0
 41
0.0
 46
0.0
 71
     5
 72
     1
  1
150
 11
0.0000000000000001
 21
1.0
 31
0.0
 73
     1
 44
1.0
  0
POINT
  5
25C4
330
1A6A
100
AcDbEntity
  8
Defpoints
 62
     0
440
 16777216
100
AcDbPoint
 10
1050.000000000001
 20
4319.999999999998
 30
0.0
  0
POINT
  5
25C5
330
1A6A
100
AcDbEntity
  8
Defpoints
 62
     0
440
 16777216
100
AcDbPoint
 10
900.0000000000008
 20
4169.999999999999
 30
0.0
  0
POINT
  5
25C6
330
1A6A
100
AcDbEntity
  8
Defpoints
 62
     0
440
 16777216
100
AcDbPoint
 10
740.0000000000009
 20
4169.999999999999
 30
0.0
  0
ENDBLK
  5
1A6C
330
1A6A
100
AcDbEntity
  8
0
100
AcDbBlockEnd
  0
BLOCK
  5
1A7D
330
1A7C
100
AcDbEntity
  8
0
100
AcDbBlockBegin
  2
*D4
 70
     1
 10
0.0
 20
0.0
 30
0.0
  3
*D4
  1

  0
LINE
  5
25C7
330
1A7C
100
AcDbEntity
  8
寸法線
 62
     0
440
 16777216
370
    -2
100
AcDbLine
 10
880.0000000000009
 20
4169.999999999999
 30
0.0
 11
570.0000000000007
 21
4169.999999999999
 31
0.0
  0
LINE
  5
25C8
330
1A7C
100
AcDbEntity
  8
寸法線
 62
     0
440
 16777216
370
    -2
100
AcDbLine
 10
880.0000000000009
 20
4969.999999999998
 30
0.0
 11
570.0000000000009
 21
4969.999999999998
 31
0.0
  0
LINE
  5
25C9
330
1A7C
100
AcDbEntity
  8
寸法線
 62
     0
440
 16777216
370
    -2
100
AcDbLine
 10
580.0000000000006
 20
4189.999999999999
 30
0.0
 11
580.0000000000009
 21
4949.999999999999
 31
0.0
  0
INSERT
  5
25CA
330
1A7C
100
AcDbEntity
  8
寸法線
 62
     0
440
 16777216
370
    -2
100
AcDbBlockReference
  2
_Open30
 10
580.0000000000006
 20
4169.999999999999
 30
0.0
 41
20.0
 42
20.0
 43
20.0
 50
270.0
  0
INSERT
  5
25CB
330
1A7C
100
AcDbEntity
  8
寸法線
 62
     0
440
 16777216
370
    -2
100
AcDbBlockReference
  2
_Open30
 10
580.0000000000009
 20
4969.999999999998
 30
0.0
 41
20.0
 42
20.0
 43
20.0
 50
90.0
  0
MTEXT
  5
25CC
330
1A7C
100
AcDbEntity
  8
寸法線
 62
     0
440
 16777216
100
AcDbMText
 10
550.0
 20
4569.999999999999
 30
0.0
 40
40.0
 41
0.0
 46
0.0
 71
     5
 72
     1
  1
800
 11
0.0000000000000001
 21
1.0
 31
0.0
 73
     1
 44
1.0
  0
POINT
  5
25CD
330
1A7C
100
AcDbEntity
  8
Defpoints
 62
     0
440
 16777216
100
AcDbPoint
 10
900.0000000000008
 20
4169.999999999999
 30
0.0
  0
POINT
  5
25CE
330
1A7C
100
AcDbEntity
  8
Defpoints
 62
     0
440
 16777216
100
AcDbPoint
 10
900.0000000000008
 20
4969.999999999998
 30
0.0
  0
POINT
  5
25CF
330
1A7C
100
AcDbEntity
  8
Defpoints
 62
     0
440
 16777216
100
AcDbPoint
 10
580.0000000000009
 20
4969.999999999998
 30
0.0
  0
ENDBLK
  5
1A7E
330
1A7C
100
AcDbEntity
  8
0
100
AcDbBlockEnd
  0
BLOCK
  5
1AB7
330
1AB6
100
AcDbEntity
  8
0
100
AcDbBlockBegin
  2
*D5
 70
     1
 10
0.0
 20
0.0
 30
0.0
  3
*D5
  1

  0
LINE
  5
25D0
330
1AB6
100
AcDbEntity
  8
寸法線
 62
     0
440
 16777216
370
    -2
100
AcDbLine
 10
1050.000000000001
 20
4839.999999999999
 30
0.0
 11
1050.000000000001
 21
5139.999999999999
 31
0.0
  0
LINE
  5
25D1
330
1AB6
100
AcDbEntity
  8
寸法線
 62
     0
440
 16777216
370
    -2
100
AcDbLine
 10
900.0000000000008
 20
4989.999999999999
 30
0.0
 11
900.0000000000008
 21
5139.999999999999
 31
0.0
  0
LINE
  5
25D2
330
1AB6
100
AcDbEntity
  8
寸法線
 62
     0
440
 16777216
370
    -2
100
AcDbLine
 10
1030.000000000001
 20
5129.999999999999
 30
0.0
 11
920.0000000000009
 21
5129.999999999999
 31
0.0
  0
INSERT
  5
25D3
330
1AB6
100
AcDbEntity
  8
寸法線
 62
     0
440
 16777216
370
    -2
100
AcDbBlockReference
  2
_Open30
 10
1050.000000000001
 20
5129.999999999999
 30
0.0
 41
20.0
 42
20.0
 43
20.0
  0
INSERT
  5
25D4
330
1AB6
100
AcDbEntity
  8
寸法線
 62
     0
440
 16777216
370
    -2
100
AcDbBlockReference
  2
_Open30
 10
900.0000000000008
 20
5129.999999999999
 30
0.0
 41
20.0
 42
20.0
 43
20.0
 50
180.0
  0
MTEXT
  5
25D5
330
1AB6
100
AcDbEntity
  8
寸法線
 62
     0
440
 16777216
100
AcDbMText
 10
975.0000000000008
 20
5160.0
 30
0.0
 40
40.0
 41
0.0
 46
0.0
 71
     5
 72
     1
  1
150
 73
     1
 44
1.0
  0
POINT
  5
25D6
330
1AB6
100
AcDbEntity
  8
Defpoints
 62
     0
440
 16777216
100
AcDbPoint
 10
1050.000000000001
 20
4819.999999999999
 30
0.0
  0
POINT
  5
25D7
330
1AB6
100
AcDbEntity
  8
Defpoints
 62
     0
440
 16777216
100
AcDbPoint
 10
900.0000000000008
 20
4969.999999999998
 30
0.0
  0
POINT
  5
25D8
330
1AB6
100
AcDbEntity
  8
Defpoints
 62
     0
440
 16777216
100
AcDbPoint
 10
900.0000000000008
 20
5129.999999999999
 30
0.0
  0
ENDBLK
  5
1AB8
330
1AB6
100
AcDbEntity
  8
0
100
AcDbBlockEnd
  0
BLOCK
  5
1AC9
330
1AC8
100
AcDbEntity
  8
0
100
AcDbBlockBegin
  2
*D6
 70
     1
 10
0.0
 20
0.0
 30
0.0
  3
*D6
  1

  0
LINE
  5
25D9
330
1AC8
100
AcDbEntity
  8
寸法線
 62
     0
440
 16777216
370
    -2
100
AcDbLine
 10
1050.000000000001
 20
4839.999999999999
 30
0.0
 11
1050.000000000001
 21
5139.999999999999
 31
0.0
  0
LINE
  5
25DA
330
1AC8
100
AcDbEntity
  8
寸法線
 62
     0
440
 16777216
370
    -2
100
AcDbLine
 10
1550.000000000001
 20
4839.999999999998
 30
0.0
 11
1550.000000000001
 21
5139.999999999999
 31
0.0
  0
LINE
  5
25DB
330
1AC8
100
AcDbEntity
  8
寸法線
 62
     0
440
 16777216
370
    -2
100
AcDbLine
 10
1070.000000000001
 20
5129.999999999999
 30
0.0
 11
1530.000000000001
 21
5129.999999999999
 31
0.0
  0
INSERT
  5
25DC
330
1AC8
100
AcDbEntity
  8
寸法線
 62
     0
440
 16777216
370
    -2
100
AcDbBlockReference
  2
_Open30
 10
1050.000000000001
 20
5129.999999999999
 30
0.0
 41
20.0
 42
20.0
 43
20.0
 50
180.0
  0
INSERT
  5
25DD
330
1AC8
100
AcDbEntity
  8
寸法線
 62
     0
440
 16777216
370
    -2
100
AcDbBlockReference
  2
_Open30
 10
1550.000000000001
 20
5129.999999999999
 30
0.0
 41
20.0
 42
20.0
 43
20.0
  0
MTEXT
  5
25DE
330
1AC8
100
AcDbEntity
  8
寸法線
 62
     0
440
 16777216
100
AcDbMText
 10
1300.000000000001
 20
5160.0
 30
0.0
 40
40.0
 41
0.0
 46
0.0
 71
     5
 72
     1
  1
500
 73
     1
 44
1.0
  0
POINT
  5
25DF
330
1AC8
100
AcDbEntity
  8
Defpoints
 62
     0
440
 16777216
100
AcDbPoint
 10
1050.000000000001
 20
4819.999999999999
 30
0.0
  0
POINT
  5
25E0
330
1AC8
100
AcDbEntity
  8
Defpoints
 62
     0
440
 16777216
100
AcDbPoint
 10
1550.000000000001
 20
4819.999999999998
 30
0.0
  0
POINT
  5
25E1
330
1AC8
100
AcDbEntity
  8
Defpoints
 62
     0
440
 16777216
100
AcDbPoint
 10
1550.000000000001
 20
5129.999999999999
 30
0.0
  0
ENDBLK
  5
1ACA
330
1AC8
100
AcDbEntity
  8
0
100
AcDbBlockEnd
  0
BLOCK
  5
1ADB
330
1ADA
100
AcDbEntity
  8
0
100
AcDbBlockBegin
  2
*D7
 70
     1
 10
0.0
 20
0.0
 30
0.0
  3
*D7
  1

  0
LINE
  5
25E2
330
1ADA
100
AcDbEntity
  8
寸法線
 62
     0
440
 16777216
370
    -2
100
AcDbLine
 10
1550.000000000001
 20
4839.999999999998
 30
0.0
 11
1550.000000000001
 21
5139.999999999999
 31
0.0
  0
LINE
  5
25E3
330
1ADA
100
AcDbEntity
  8
寸法線
 62
     0
440
 16777216
370
    -2
100
AcDbLine
 10
1700.000000000001
 20
4989.999999999999
 30
0.0
 11
1700.000000000001
 21
5139.999999999999
 31
0.0
  0
LINE
  5
25E4
330
1ADA
100
AcDbEntity
  8
寸法線
 62
     0
440
 16777216
370
    -2
100
AcDbLine
 10
1570.000000000001
 20
5129.999999999999
 30
0.0
 11
1680.000000000001
 21
5129.999999999999
 31
0.0
  0
INSERT
  5
25E5
330
1ADA
100
AcDbEntity
  8
寸法線
 62
     0
440
 16777216
370
    -2
100
AcDbBlockReference
  2
_Open30
 10
1550.000000000001
 20
5129.999999999999
 30
0.0
 41
20.0
 42
20.0
 43
20.0
 50
180.0
  0
INSERT
  5
25E6
330
1ADA
100
AcDbEntity
  8
寸法線
 62
     0
440
 16777216
370
    -2
100
AcDbBlockReference
  2
_Open30
 10
1700.000000000001
 20
5129.999999999999
 30
0.0
 41
20.0
 42
20.0
 43
20.0
  0
MTEXT
  5
25E7
330
1ADA
100
AcDbEntity
  8
寸法線
 62
     0
440
 16777216
100
AcDbMText
 10
1625.000000000001
 20
5160.0
 30
0.0
 40
40.0
 41
0.0
 46
0.0
 71
     5
 72
     1
  1
150
 73
     1
 44
1.0
  0
POINT
  5
25E8
330
1ADA
100
AcDbEntity
  8
Defpoints
 62
     0
440
 16777216
100
AcDbPoint
 10
1550.000000000001
 20
4819.999999999998
 30
0.0
  0
POINT
  5
25E9
330
1ADA
100
AcDbEntity
  8
Defpoints
 62
     0
440
 16777216
100
AcDbPoint
 10
1700.000000000001
 20
4969.999999999998
 30
0.0
  0
POINT
  5
25EA
330
1ADA
100
AcDbEntity
  8
Defpoints
 62
     0
440
 16777216
100
AcDbPoint
 10
1700.000000000001
 20
5129.999999999999
 30
0.0
  0
ENDBLK
  5
1ADC
330
1ADA
100
AcDbEntity
  8
0
100
AcDbBlockEnd
  0
BLOCK
  5
1AED
330
1AEC
100
AcDbEntity
  8
0
100
AcDbBlockBegin
  2
*D8
 70
     1
 10
0.0
 20
0.0
 30
0.0
  3
*D8
  1

  0
LINE
  5
25EB
330
1AEC
100
AcDbEntity
  8
寸法線
 62
     0
440
 16777216
370
    -2
100
AcDbLine
 10
1700.000000000001
 20
4989.999999999999
 30
0.0
 11
1700.000000000001
 21
5299.999999999999
 31
0.0
  0
LINE
  5
25EC
330
1AEC
100
AcDbEntity
  8
寸法線
 62
     0
440
 16777216
370
    -2
100
AcDbLine
 10
900.0000000000008
 20
4989.999999999999
 30
0.0
 11
900.0000000000008
 21
5299.999999999999
 31
0.0
  0
LINE
  5
25ED
330
1AEC
100
AcDbEntity
  8
寸法線
 62
     0
440
 16777216
370
    -2
100
AcDbLine
 10
1680.000000000001
 20
5289.999999999999
 30
0.0
 11
920.0000000000009
 21
5289.999999999999
 31
0.0
  0
INSERT
  5
25EE
330
1AEC
100
AcDbEntity
  8
寸法線
 62
     0
440
 16777216
370
    -2
100
AcDbBlockReference
  2
_Open30
 10
1700.000000000001
 20
5289.999999999999
 30
0.0
 41
20.0
 42
20.0
 43
20.0
  0
INSERT
  5
25EF
330
1AEC
100
AcDbEntity
  8
寸法線
 62
     0
440
 16777216
370
    -2
100
AcDbBlockReference
  2
_Open30
 10
900.0000000000008
 20
5289.999999999999
 30
0.0
 41
20.0
 42
20.0
 43
20.0
 50
180.0
  0
MTEXT
  5
25F0
330
1AEC
100
AcDbEntity
  8
寸法線
 62
     0
440
 16777216
100
AcDbMText
 10
1300.000000000001
 20
5319.999999999999
 30
0.0
 40
40.0
 41
0.0
 46
0.0
 71
     5
 72
     1
  1
800
 73
     1
 44
1.0
  0
POINT
  5
25F1
330
1AEC
100
AcDbEntity
  8
Defpoints
 62
     0
440
 16777216
100
AcDbPoint
 10
1700.000000000001
 20
4969.999999999998
 30
0.0
  0
POINT
  5
25F2
330
1AEC
100
AcDbEntity
  8
Defpoints
 62
     0
440
 16777216
100
AcDbPoint
 10
900.0000000000008
 20
4969.999999999998
 30
0.0
  0
POINT
  5
25F3
330
1AEC
100
AcDbEntity
  8
Defpoints
 62
     0
440
 16777216
100
AcDbPoint
 10
900.0000000000008
 20
5289.999999999999
 30
0.0
  0
ENDBLK
  5
1AEE
330
1AEC
100
AcDbEntity
  8
0
100
AcDbBlockEnd
  0
BLOCK
  5
1AFF
330
1AFE
100
AcDbEntity
  8
0
100
AcDbBlockBegin
  2
*D9
 70
     1
 10
0.0
 20
0.0
 30
0.0
  3
*D9
  1

  0
LINE
  5
25F4
330
1AFE
100
AcDbEntity
  8
寸法線
 62
     0
440
 16777216
370
    -2
100
AcDbLine
 10
880.0000000000009
 20
1669.999999999999
 30
0.0
 11
730.0000000000004
 21
1669.999999999999
 31
0.0
  0
LINE
  5
25F5
330
1AFE
100
AcDbEntity
  8
寸法線
 62
     0
440
 16777216
370
    -2
100
AcDbLine
 10
880.0000000000009
 20
1769.999999999999
 30
0.0
 11
730.0000000000004
 21
1769.999999999999
 31
0.0
  0
LINE
  5
25F6
330
1AFE
100
AcDbEntity
  8
寸法線
 62
     0
440
 16777216
370
    -2
100
AcDbLine
 10
740.0000000000004
 20
1689.999999999999
 30
0.0
 11
740.0000000000004
 21
1749.999999999999
 31
0.0
  0
INSERT
  5
25F7
330
1AFE
100
AcDbEntity
  8
寸法線
 62
     0
440
 16777216
370
    -2
100
AcDbBlockReference
  2
_Open30
 10
740.0000000000004
 20
1669.999999999999
 30
0.0
 41
20.0
 42
20.0
 43
20.0
 50
270.0
  0
INSERT
  5
25F8
330
1AFE
100
AcDbEntity
  8
寸法線
 62
     0
440
 16777216
370
    -2
100
AcDbBlockReference
  2
_Open30
 10
740.0000000000004
 20
1769.999999999999
 30
0.0
 41
20.0
 42
20.0
 43
20.0
 50
90.0
  0
MTEXT
  5
25F9
330
1AFE
100
AcDbEntity
  8
寸法線
 62
     0
440
 16777216
100
AcDbMText
 10
710.0000000000002
 20
1719.999999999999
 30
0.0
 40
40.0
 41
0.0
 46
0.0
 71
     5
 72
     1
  1
100
 11
0.0000000000000001
 21
1.0
 31
0.0
 73
     1
 44
1.0
  0
POINT
  5
25FA
330
1AFE
100
AcDbEntity
  8
Defpoints
 62
     0
440
 16777216
100
AcDbPoint
 10
900.0000000000008
 20
1669.999999999999
 30
0.0
  0
POINT
  5
25FB
330
1AFE
100
AcDbEntity
  8
Defpoints
 62
     0
440
 16777216
100
AcDbPoint
 10
900.0000000000008
 20
1769.999999999999
 30
0.0
  0
POINT
  5
25FC
330
1AFE
100
AcDbEntity
  8
Defpoints
 62
     0
440
 16777216
100
AcDbPoint
 10
740.0000000000004
 20
1769.999999999999
 30
0.0
  0
ENDBLK
  5
1B00
330
1AFE
100
AcDbEntity
  8
0
100
AcDbBlockEnd
  0
BLOCK
  5
1B11
330
1B10
100
AcDbEntity
  8
0
100
AcDbBlockBegin
  2
*D10
 70
     1
 10
0.0
 20
0.0
 30
0.0
  3
*D10
  1

  0
LINE
  5
25FD
330
1B10
100
AcDbEntity
  8
寸法線
 62
     0
440
 16777216
370
    -2
100
AcDbLine
 10
980.0000000000009
 20
1619.999999999998
 30
0.0
 11
730.0000000000004
 21
1619.999999999998
 31
0.0
  0
LINE
  5
25FE
330
1B10
100
AcDbEntity
  8
寸法線
 62
     0
440
 16777216
370
    -2
100
AcDbLine
 10
880.0000000000009
 20
1669.999999999999
 30
0.0
 11
730.0000000000004
 21
1669.999999999999
 31
0.0
  0
LINE
  5
25FF
330
1B10
100
AcDbEntity
  8
寸法線
 62
     0
440
 16777216
370
    -2
100
AcDbLine
 10
740.0000000000004
 20
1599.999999999998
 30
0.0
 11
740.0000000000004
 21
1579.999999999999
 31
0.0
  0
LINE
  5
2600
330
1B10
100
AcDbEntity
  8
寸法線
 62
     0
440
 16777216
370
    -2
100
AcDbLine
 10
740.0000000000004
 20
1689.999999999999
 30
0.0
 11
740.0000000000004
 21
1709.999999999999
 31
0.0
  0
MTEXT
  5
2601
330
1B10
100
AcDbEntity
  8
寸法線
 62
     0
440
 16777216
100
AcDbMText
 10
667.8083464804513
 20
1644.999999999999
 30
0.0
 40
40.0
 41
0.0
 46
0.0
 71
     5
 72
     1
  1
50
 11
0.0000000000000001
 21
1.0
 31
0.0
 73
     1
 44
1.0
  0
LINE
  5
2602
330
1B10
100
AcDbEntity
  8
寸法線
 62
     0
440
 16777216
370
    -2
100
AcDbLine
 10
740.0000000000004
 20
1619.999999999998
 30
0.0
 11
740.0000000000004
 21
1669.999999999999
 31
0.0
  0
INSERT
  5
2603
330
1B10
100
AcDbEntity
  8
寸法線
 62
     0
440
 16777216
370
    -2
100
AcDbBlockReference
  2
_Open30
 10
740.0000000000004
 20
1619.999999999998
 30
0.0
 41
20.0
 42
20.0
 43
20.0
 50
90.0
  0
INSERT
  5
2604
330
1B10
100
AcDbEntity
  8
寸法線
 62
     0
440
 16777216
370
    -2
100
AcDbBlockReference
  2
_Open30
 10
740.0000000000004
 20
1669.999999999999
 30
0.0
 41
20.0
 42
20.0
 43
20.0
 50
270.0
  0
POINT
  5
2605
330
1B10
100
AcDbEntity
  8
Defpoints
 62
     0
440
 16777216
100
AcDbPoint
 10
1000.000000000001
 20
1619.999999999998
 30
0.0
  0
POINT
  5
2606
330
1B10
100
AcDbEntity
  8
Defpoints
 62
     0
440
 16777216
100
AcDbPoint
 10
900.0000000000008
 20
1669.999999999999
 30
0.0
  0
POINT
  5
2607
330
1B10
100
AcDbEntity
  8
Defpoints
 62
     0
440
 16777216
100
AcDbPoint
 10
740.0000000000004
 20
1669.999999999999
 30
0.0
  0
ENDBLK
  5
1B12
330
1B10
100
AcDbEntity
  8
0
100
AcDbBlockEnd
  0
BLOCK
  5
1B3B
330
1B3A
100
AcDbEntity
  8
0
100
AcDbBlockBegin
  2
*D11
 70
     1
 10
0.0
 20
0.0
 30
0.0
  3
*D11
  1

  0
LINE
  5
2608
330
1B3A
100
AcDbEntity
  8
寸法線
 62
     0
440
 16777216
370
    -2
100
AcDbLine
 10
980.0000000000009
 20
1619.999999999998
 30
0.0
 11
730.0000000000004
 21
1619.999999999998
 31
0.0
  0
LINE
  5
2609
330
1B3A
100
AcDbEntity
  8
寸法線
 62
     0
440
 16777216
370
    -2
100
AcDbLine
 10
980.0000000000009
 20
1119.999999999999
 30
0.0
 11
730.0000000000003
 21
1119.999999999999
 31
0.0
  0
LINE
  5
260A
330
1B3A
100
AcDbEntity
  8
寸法線
 62
     0
440
 16777216
370
    -2
100
AcDbLine
 10
740.0000000000004
 20
1599.999999999998
 30
0.0
 11
740.0000000000003
 21
1139.999999999999
 31
0.0
  0
INSERT
  5
260B
330
1B3A
100
AcDbEntity
  8
寸法線
 62
     0
440
 16777216
370
    -2
100
AcDbBlockReference
  2
_Open30
 10
740.0000000000004
 20
1619.999999999998
 30
0.0
 41
20.0
 42
20.0
 43
20.0
 50
90.0
  0
INSERT
  5
260C
330
1B3A
100
AcDbEntity
  8
寸法線
 62
     0
440
 16777216
370
    -2
100
AcDbBlockReference
  2
_Open30
 10
740.0000000000003
 20
1119.999999999999
 30
0.0
 41
20.0
 42
20.0
 43
20.0
 50
270.0
  0
MTEXT
  5
260D
330
1B3A
100
AcDbEntity
  8
寸法線
 62
     0
440
 16777216
100
AcDbMText
 10
710.0000000000002
 20
1369.999999999999
 30
0.0
 40
40.0
 41
0.0
 46
0.0
 71
     5
 72
     1
  1
500
 11
0.0000000000000001
 21
1.0
 31
0.0
 73
     1
 44
1.0
  0
POINT
  5
260E
330
1B3A
100
AcDbEntity
  8
Defpoints
 62
     0
440
 16777216
100
AcDbPoint
 10
1000.000000000001
 20
1619.999999999998
 30
0.0
  0
POINT
  5
260F
330
1B3A
100
AcDbEntity
  8
Defpoints
 62
     0
440
 16777216
100
AcDbPoint
 10
1000.000000000001
 20
1119.999999999999
 30
0.0
  0
POINT
  5
2610
330
1B3A
100
AcDbEntity
  8
Defpoints
 62
     0
440
 16777216
100
AcDbPoint
 10
740.0000000000003
 20
1119.999999999999
 30
0.0
  0
ENDBLK
  5
1B3C
330
1B3A
100
AcDbEntity
  8
0
100
AcDbBlockEnd
  0
BLOCK
  5
1B4D
330
1B4C
100
AcDbEntity
  8
0
100
AcDbBlockBegin
  2
*D12
 70
     1
 10
0.0
 20
0.0
 30
0.0
  3
*D12
  1

  0
LINE
  5
2611
330
1B4C
100
AcDbEntity
  8
寸法線
 62
     0
440
 16777216
370
    -2
100
AcDbLine
 10
980.0000000000009
 20
1119.999999999999
 30
0.0
 11
730.0000000000003
 21
1119.999999999999
 31
0.0
  0
LINE
  5
2612
330
1B4C
100
AcDbEntity
  8
寸法線
 62
     0
440
 16777216
370
    -2
100
AcDbLine
 10
880.0000000000009
 20
1069.999999999999
 30
0.0
 11
730.0000000000003
 21
1069.999999999999
 31
0.0
  0
LINE
  5
2613
330
1B4C
100
AcDbEntity
  8
寸法線
 62
     0
440
 16777216
370
    -2
100
AcDbLine
 10
740.0000000000003
 20
1139.999999999999
 30
0.0
 11
740.0000000000003
 21
1159.999999999999
 31
0.0
  0
LINE
  5
2614
330
1B4C
100
AcDbEntity
  8
寸法線
 62
     0
440
 16777216
370
    -2
100
AcDbLine
 10
740.0000000000003
 20
1049.999999999999
 30
0.0
 11
740.0000000000003
 21
1029.999999999999
 31
0.0
  0
MTEXT
  5
2615
330
1B4C
100
AcDbEntity
  8
寸法線
 62
     0
440
 16777216
100
AcDbMText
 10
670.1061935856996
 20
1094.999999999999
 30
0.0
 40
40.0
 41
0.0
 46
0.0
 71
     5
 72
     1
  1
50
 11
0.0000000000000001
 21
1.0
 31
0.0
 73
     1
 44
1.0
  0
LINE
  5
2616
330
1B4C
100
AcDbEntity
  8
寸法線
 62
     0
440
 16777216
370
    -2
100
AcDbLine
 10
740.0000000000003
 20
1119.999999999999
 30
0.0
 11
740.0000000000003
 21
1069.999999999999
 31
0.0
  0
INSERT
  5
2617
330
1B4C
100
AcDbEntity
  8
寸法線
 62
     0
440
 16777216
370
    -2
100
AcDbBlockReference
  2
_Open30
 10
740.0000000000003
 20
1119.999999999999
 30
0.0
 41
20.0
 42
20.0
 43
20.0
 50
270.0
  0
INSERT
  5
2618
330
1B4C
100
AcDbEntity
  8
寸法線
 62
     0
440
 16777216
370
    -2
100
AcDbBlockReference
  2
_Open30
 10
740.0000000000003
 20
1069.999999999999
 30
0.0
 41
20.0
 42
20.0
 43
20.0
 50
90.0
  0
POINT
  5
2619
330
1B4C
100
AcDbEntity
  8
Defpoints
 62
     0
440
 16777216
100
AcDbPoint
 10
1000.000000000001
 20
1119.999999999999
 30
0.0
  0
POINT
  5
261A
330
1B4C
100
AcDbEntity
  8
Defpoints
 62
     0
440
 16777216
100
AcDbPoint
 10
900.0000000000008
 20
1069.999999999999
 30
0.0
  0
POINT
  5
261B
330
1B4C
100
AcDbEntity
  8
Defpoints
 62
     0
440
 16777216
100
AcDbPoint
 10
740.0000000000003
 20
1069.999999999999
 30
0.0
  0
ENDBLK
  5
1B4E
330
1B4C
100
AcDbEntity
  8
0
100
AcDbBlockEnd
  0
BLOCK
  5
1B61
330
1B60
100
AcDbEntity
  8
0
100
AcDbBlockBegin
  2
*D13
 70
     1
 10
0.0
 20
0.0
 30
0.0
  3
*D13
  1

  0
LINE
  5
261C
330
1B60
100
AcDbEntity
  8
寸法線
 62
     0
440
 16777216
370
    -2
100
AcDbLine
 10
880.0000000000009
 20
1069.999999999999
 30
0.0
 11
730.0000000000002
 21
1069.999999999999
 31
0.0
  0
LINE
  5
261D
330
1B60
100
AcDbEntity
  8
寸法線
 62
     0
440
 16777216
370
    -2
100
AcDbLine
 10
880.0000000000009
 20
969.999999999999
 30
0.0
 11
730.0000000000002
 21
969.9999999999992
 31
0.0
  0
LINE
  5
261E
330
1B60
100
AcDbEntity
  8
寸法線
 62
     0
440
 16777216
370
    -2
100
AcDbLine
 10
740.0000000000002
 20
1049.999999999999
 30
0.0
 11
740.0000000000002
 21
989.9999999999991
 31
0.0
  0
INSERT
  5
261F
330
1B60
100
AcDbEntity
  8
寸法線
 62
     0
440
 16777216
370
    -2
100
AcDbBlockReference
  2
_Open30
 10
740.0000000000002
 20
1069.999999999999
 30
0.0
 41
20.0
 42
20.0
 43
20.0
 50
90.0
  0
INSERT
  5
2620
330
1B60
100
AcDbEntity
  8
寸法線
 62
     0
440
 16777216
370
    -2
100
AcDbBlockReference
  2
_Open30
 10
740.0000000000002
 20
969.9999999999992
 30
0.0
 41
20.0
 42
20.0
 43
20.0
 50
270.0
  0
MTEXT
  5
2621
330
1B60
100
AcDbEntity
  8
寸法線
 62
     0
440
 16777216
100
AcDbMText
 10
710.0000000000001
 20
1019.999999999999
 30
0.0
 40
40.0
 41
0.0
 46
0.0
 71
     5
 72
     1
  1
100
 11
0.0000000000000001
 21
1.0
 31
0.0
 73
     1
 44
1.0
  0
POINT
  5
2622
330
1B60
100
AcDbEntity
  8
Defpoints
 62
     0
440
 16777216
100
AcDbPoint
 10
900.0000000000008
 20
1069.999999999999
 30
0.0
  0
POINT
  5
2623
330
1B60
100
AcDbEntity
  8
Defpoints
 62
     0
440
 16777216
100
AcDbPoint
 10
900.0000000000008
 20
969.999999999999
 30
0.0
  0
POINT
  5
2624
330
1B60
100
AcDbEntity
  8
Defpoints
 62
     0
440
 16777216
100
AcDbPoint
 10
740.0000000000002
 20
969.9999999999992
 30
0.0
  0
ENDBLK
  5
1B62
330
1B60
100
AcDbEntity
  8
0
100
AcDbBlockEnd
  0
BLOCK
  5
1B8B
330
1B8A
100
AcDbEntity
  8
0
100
AcDbBlockBegin
  2
*D14
 70
     1
 10
0.0
 20
0.0
 30
0.0
  3
*D14
  1

  0
LINE
  5
2625
330
1B8A
100
AcDbEntity
  8
寸法線
 62
     0
440
 16777216
370
    -2
100
AcDbLine
 10
1000.000000000001
 20
1389.999999999999
 30
0.0
 11
1000.000000000001
 21
1379.999999999999
 31
0.0
  0
LINE
  5
2626
330
1B8A
100
AcDbEntity
  8
寸法線
 62
     0
440
 16777216
370
    -2
100
AcDbLine
 10
900.0000000000008
 20
1389.999999999999
 30
0.0
 11
900.0000000000008
 21
1379.999999999999
 31
0.0
  0
LINE
  5
2627
330
1B8A
100
AcDbEntity
  8
寸法線
 62
     0
440
 16777216
370
    -2
100
AcDbLine
 10
980.0000000000009
 20
1369.999999999999
 30
0.0
 11
920.0000000000009
 21
1369.999999999999
 31
0.0
  0
INSERT
  5
2628
330
1B8A
100
AcDbEntity
  8
寸法線
 62
     0
440
 16777216
370
    -2
100
AcDbBlockReference
  2
_Open30
 10
1000.000000000001
 20
1369.999999999999
 30
0.0
 41
20.0
 42
20.0
 43
20.0
  0
INSERT
  5
2629
330
1B8A
100
AcDbEntity
  8
寸法線
 62
     0
440
 16777216
370
    -2
100
AcDbBlockReference
  2
_Open30
 10
900.0000000000008
 20
1369.999999999999
 30
0.0
 41
20.0
 42
20.0
 43
20.0
 50
180.0
  0
MTEXT
  5
262A
330
1B8A
100
AcDbEntity
  8
寸法線
 62
     0
440
 16777216
100
AcDbMText
 10
950.0000000000008
 20
1399.999999999999
 30
0.0
 40
40.0
 41
0.0
 46
0.0
 71
     5
 72
     1
  1
100
 73
     1
 44
1.0
  0
POINT
  5
262B
330
1B8A
100
AcDbEntity
  8
Defpoints
 62
     0
440
 16777216
100
AcDbPoint
 10
1000.000000000001
 20
1369.999999999999
 30
0.0
  0
POINT
  5
262C
330
1B8A
100
AcDbEntity
  8
Defpoints
 62
     0
440
 16777216
100
AcDbPoint
 10
900.0000000000008
 20
1369.999999999999
 30
0.0
  0
POINT
  5
262D
330
1B8A
100
AcDbEntity
  8
Defpoints
 62
     0
440
 16777216
100
AcDbPoint
 10
900.0000000000008
 20
1369.999999999999
 30
0.0
  0
ENDBLK
  5
1B8C
330
1B8A
100
AcDbEntity
  8
0
100
AcDbBlockEnd
  0
BLOCK
  5
1B9B
330
1B9A
100
AcDbEntity
  8
0
100
AcDbBlockBegin
  2
*D15
 70
     1
 10
0.0
 20
0.0
 30
0.0
  3
*D15
  1

  0
LINE
  5
262E
330
1B9A
100
AcDbEntity
  8
寸法線
 62
     0
440
 16777216
370
    -2
100
AcDbLine
 10
1000.000000000001
 20
1389.999999999999
 30
0.0
 11
1000.000000000001
 21
1379.999999999999
 31
0.0
  0
LINE
  5
262F
330
1B9A
100
AcDbEntity
  8
寸法線
 62
     0
440
 16777216
370
    -2
100
AcDbLine
 10
1050.000000000001
 20
1389.999999999999
 30
0.0
 11
1050.000000000001
 21
1379.999999999999
 31
0.0
  0
LINE
  5
2630
330
1B9A
100
AcDbEntity
  8
寸法線
 62
     0
440
 16777216
370
    -2
100
AcDbLine
 10
980.0000000000009
 20
1369.999999999999
 30
0.0
 11
960.0000000000008
 21
1369.999999999999
 31
0.0
  0
LINE
  5
2631
330
1B9A
100
AcDbEntity
  8
寸法線
 62
     0
440
 16777216
370
    -2
100
AcDbLine
 10
1070.000000000001
 20
1369.999999999999
 30
0.0
 11
1162.385786802031
 21
1369.999999999999
 31
0.0
  0
LINE
  5
2632
330
1B9A
100
AcDbEntity
  8
寸法線
 62
     0
440
 16777216
370
    -2
100
AcDbLine
 10
1000.000000000001
 20
1369.999999999999
 30
0.0
 11
1050.000000000001
 21
1369.999999999999
 31
0.0
  0
INSERT
  5
2633
330
1B9A
100
AcDbEntity
  8
寸法線
 62
     0
440
 16777216
370
    -2
100
AcDbBlockReference
  2
_Open30
 10
1000.000000000001
 20
1369.999999999999
 30
0.0
 41
20.0
 42
20.0
 43
20.0
  0
INSERT
  5
2634
330
1B9A
100
AcDbEntity
  8
寸法線
 62
     0
440
 16777216
370
    -2
100
AcDbBlockReference
  2
_Open30
 10
1050.000000000001
 20
1369.999999999999
 30
0.0
 41
20.0
 42
20.0
 43
20.0
 50
180.0
  0
MTEXT
  5
2635
330
1B9A
100
AcDbEntity
  8
寸法線
 62
     0
440
 16777216
100
AcDbMText
 10
1126.192893401016
 20
1399.999999999999
 30
0.0
 40
40.0
 41
0.0
 46
0.0
 71
     5
 72
     1
  1
50
 73
     1
 44
1.0
  0
POINT
  5
2636
330
1B9A
100
AcDbEntity
  8
Defpoints
 62
     0
440
 16777216
100
AcDbPoint
 10
1000.000000000001
 20
1369.999999999999
 30
0.0
  0
POINT
  5
2637
330
1B9A
100
AcDbEntity
  8
Defpoints
 62
     0
440
 16777216
100
AcDbPoint
 10
1050.000000000001
 20
1369.999999999999
 30
0.0
  0
POINT
  5
2638
330
1B9A
100
AcDbEntity
  8
Defpoints
 62
     0
440
 16777216
100
AcDbPoint
 10
1050.000000000001
 20
1369.999999999999
 30
0.0
  0
ENDBLK
  5
1B9C
330
1B9A
100
AcDbEntity
  8
0
100
AcDbBlockEnd
  0
BLOCK
  5
1BAF
330
1BAE
100
AcDbEntity
  8
0
100
AcDbBlockBegin
  2
*D16
 70
     1
 10
0.0
 20
0.0
 30
0.0
  3
*D16
  1

  0
LINE
  5
2639
330
1BAE
100
AcDbEntity
  8
寸法線
 62
     0
440
 16777216
370
    -2
100
AcDbLine
 10
1280.000000000001
 20
1069.999999999998
 30
0.0
 11
1290.000000000001
 21
1069.999999999998
 31
0.0
  0
LINE
  5
263A
330
1BAE
100
AcDbEntity
  8
寸法線
 62
     0
440
 16777216
370
    -2
100
AcDbLine
 10
1280.000000000001
 20
1119.999999999999
 30
0.0
 11
1290.000000000001
 21
1119.999999999999
 31
0.0
  0
LINE
  5
263B
330
1BAE
100
AcDbEntity
  8
寸法線
 62
     0
440
 16777216
370
    -2
100
AcDbLine
 10
1300.000000000001
 20
1049.999999999998
 30
0.0
 11
1300.000000000001
 21
1029.999999999998
 31
0.0
  0
LINE
  5
263C
330
1BAE
100
AcDbEntity
  8
寸法線
 62
     0
440
 16777216
370
    -2
100
AcDbLine
 10
1300.000000000001
 20
1139.999999999999
 30
0.0
 11
1300.000000000001
 21
1232.385786802029
 31
0.0
  0
LINE
  5
263D
330
1BAE
100
AcDbEntity
  8
寸法線
 62
     0
440
 16777216
370
    -2
100
AcDbLine
 10
1300.000000000001
 20
1069.999999999998
 30
0.0
 11
1300.000000000001
 21
1119.999999999999
 31
0.0
  0
INSERT
  5
263E
330
1BAE
100
AcDbEntity
  8
寸法線
 62
     0
440
 16777216
370
    -2
100
AcDbBlockReference
  2
_Open30
 10
1300.000000000001
 20
1069.999999999998
 30
0.0
 41
20.0
 42
20.0
 43
20.0
 50
90.0
  0
INSERT
  5
263F
330
1BAE
100
AcDbEntity
  8
寸法線
 62
     0
440
 16777216
370
    -2
100
AcDbBlockReference
  2
_Open30
 10
1300.000000000001
 20
1119.999999999999
 30
0.0
 41
20.0
 42
20.0
 43
20.0
 50
270.0
  0
MTEXT
  5
2640
330
1BAE
100
AcDbEntity
  8
寸法線
 62
     0
440
 16777216
100
AcDbMText
 10
1270.0
 20
1196.192893401014
 30
0.0
 40
40.0
 41
0.0
 46
0.0
 71
     5
 72
     1
  1
50
 11
0.0000000000000001
 21
1.0
 31
0.0
 73
     1
 44
1.0
  0
POINT
  5
2641
330
1BAE
100
AcDbEntity
  8
Defpoints
 62
     0
440
 16777216
100
AcDbPoint
 10
1300.000000000001
 20
1069.999999999998
 30
0.0
  0
POINT
  5
2642
330
1BAE
100
AcDbEntity
  8
Defpoints
 62
     0
440
 16777216
100
AcDbPoint
 10
1300.000000000001
 20
1119.999999999999
 30
0.0
  0
POINT
  5
2643
330
1BAE
100
AcDbEntity
  8
Defpoints
 62
     0
440
 16777216
100
AcDbPoint
 10
1300.000000000001
 20
1119.999999999999
 30
0.0
  0
ENDBLK
  5
1BB0
330
1BAE
100
AcDbEntity
  8
0
100
AcDbBlockEnd
  0
BLOCK
  5
1BC1
330
1BC0
100
AcDbEntity
  8
0
100
AcDbBlockBegin
  2
*D17
 70
     1
 10
0.0
 20
0.0
 30
0.0
  3
*D17
  1

  0
LINE
  5
2644
330
1BC0
100
AcDbEntity
  8
寸法線
 62
     0
440
 16777216
370
    -2
100
AcDbLine
 10
1280.000000000001
 20
1069.999999999998
 30
0.0
 11
1290.000000000001
 21
1069.999999999998
 31
0.0
  0
LINE
  5
2645
330
1BC0
100
AcDbEntity
  8
寸法線
 62
     0
440
 16777216
370
    -2
100
AcDbLine
 10
1280.000000000001
 20
969.999999999999
 30
0.0
 11
1290.000000000001
 21
969.999999999999
 31
0.0
  0
LINE
  5
2646
330
1BC0
100
AcDbEntity
  8
寸法線
 62
     0
440
 16777216
370
    -2
100
AcDbLine
 10
1300.000000000001
 20
1049.999999999998
 30
0.0
 11
1300.000000000001
 21
989.9999999999991
 31
0.0
  0
INSERT
  5
2647
330
1BC0
100
AcDbEntity
  8
寸法線
 62
     0
440
 16777216
370
    -2
100
AcDbBlockReference
  2
_Open30
 10
1300.000000000001
 20
1069.999999999998
 30
0.0
 41
20.0
 42
20.0
 43
20.0
 50
90.0
  0
INSERT
  5
2648
330
1BC0
100
AcDbEntity
  8
寸法線
 62
     0
440
 16777216
370
    -2
100
AcDbBlockReference
  2
_Open30
 10
1300.000000000001
 20
969.999999999999
 30
0.0
 41
20.0
 42
20.0
 43
20.0
 50
270.0
  0
MTEXT
  5
2649
330
1BC0
100
AcDbEntity
  8
寸法線
 62
     0
440
 16777216
100
AcDbMText
 10
1270.0
 20
1019.999999999999
 30
0.0
 40
40.0
 41
0.0
 46
0.0
 71
     5
 72
     1
  1
100
 11
0.0000000000000001
 21
1.0
 31
0.0
 73
     1
 44
1.0
  0
POINT
  5
264A
330
1BC0
100
AcDbEntity
  8
Defpoints
 62
     0
440
 16777216
100
AcDbPoint
 10
1300.000000000001
 20
1069.999999999998
 30
0.0
  0
POINT
  5
264B
330
1BC0
100
AcDbEntity
  8
Defpoints
 62
     0
440
 16777216
100
AcDbPoint
 10
1300.000000000001
 20
969.999999999999
 30
0.0
  0
POINT
  5
264C
330
1BC0
100
AcDbEntity
  8
Defpoints
 62
     0
440
 16777216
100
AcDbPoint
 10
1300.000000000001
 20
969.999999999999
 30
0.0
  0
ENDBLK
  5
1BC2
330
1BC0
100
AcDbEntity
  8
0
100
AcDbBlockEnd
  0
BLOCK
  5
1BD1
330
1BD0
100
AcDbEntity
  8
0
100
AcDbBlockBegin
  2
*D18
 70
     1
 10
0.0
 20
0.0
 30
0.0
  3
*D18
  1

  0
LINE
  5
2539
330
1BD0
100
AcDbEntity
  8
寸法線
 62
     0
440
 16777216
370
    -2
100
AcDbLine
 10
880.0000000000007
 20
2569.999999999999
 30
0.0
 11
570.0000000000003
 21
2569.999999999999
 31
0.0
  0
LINE
  5
253A
330
1BD0
100
AcDbEntity
  8
寸法線
 62
     0
440
 16777216
370
    -2
100
AcDbLine
 10
888.0000000000009
 20
3369.999999999999
 30
0.0
 11
570.0000000000005
 21
3369.999999999999
 31
0.0
  0
LINE
  5
253B
330
1BD0
100
AcDbEntity
  8
寸法線
 62
     0
440
 16777216
370
    -2
100
AcDbLine
 10
580.0000000000003
 20
2589.999999999999
 30
0.0
 11
580.0000000000006
 21
3350.0
 31
0.0
  0
INSERT
  5
253C
330
1BD0
100
AcDbEntity
  8
寸法線
 62
     0
440
 16777216
370
    -2
100
AcDbBlockReference
  2
_Open30
 10
580.0000000000003
 20
2569.999999999999
 30
0.0
 41
20.0
 42
20.0
 43
20.0
 50
270.0
  0
INSERT
  5
253D
330
1BD0
100
AcDbEntity
  8
寸法線
 62
     0
440
 16777216
370
    -2
100
AcDbBlockReference
  2
_Open30
 10
580.0000000000006
 20
3369.999999999999
 30
0.0
 41
20.0
 42
20.0
 43
20.0
 50
90.0
  0
MTEXT
  5
253E
330
1BD0
100
AcDbEntity
  8
寸法線
 62
     0
440
 16777216
100
AcDbMText
 10
550.0
 20
2969.999999999999
 30
0.0
 40
40.0
 41
0.0
 46
0.0
 71
     5
 72
     1
  1
800
 11
0.0000000000000001
 21
1.0
 31
0.0
 73
     1
 44
1.0
  0
POINT
  5
253F
330
1BD0
100
AcDbEntity
  8
Defpoints
 62
     0
440
 16777216
100
AcDbPoint
 10
900.0000000000008
 20
2569.999999999999
 30
0.0
  0
POINT
  5
2540
330
1BD0
100
AcDbEntity
  8
Defpoints
 62
     0
440
 16777216
100
AcDbPoint
 10
908.0000000000008
 20
3369.999999999999
 30
0.0
  0
POINT
  5
2541
330
1BD0
100
AcDbEntity
  8
Defpoints
 62
     0
440
 16777216
100
AcDbPoint
 10
580.0000000000006
 20
3369.999999999999
 30
0.0
  0
ENDBLK
  5
1BD2
330
1BD0
100
AcDbEntity
  8
0
100
AcDbBlockEnd
  0
BLOCK
  5
1BE4
330
1BE3
100
AcDbEntity
  8
0
100
AcDbBlockBegin
  2
*D19
 70
     1
 10
0.0
 20
0.0
 30
0.0
  3
*D19
  1

  0
LINE
  5
2542
330
1BE3
100
AcDbEntity
  8
寸法線
 62
     0
440
 16777216
370
    -2
100
AcDbLine
 10
2480.000000000001
 20
3279.999999999999
 30
0.0
 11
2330.000000000001
 21
3279.999999999999
 31
0.0
  0
LINE
  5
2543
330
1BE3
100
AcDbEntity
  8
寸法線
 62
     0
440
 16777216
370
    -2
100
AcDbLine
 10
2488.000000000001
 20
3369.999999999999
 30
0.0
 11
2330.000000000001
 21
3369.999999999999
 31
0.0
  0
LINE
  5
2544
330
1BE3
100
AcDbEntity
  8
寸法線
 62
     0
440
 16777216
370
    -2
100
AcDbLine
 10
2340.000000000001
 20
3299.999999999999
 30
0.0
 11
2340.000000000001
 21
3350.0
 31
0.0
  0
INSERT
  5
2545
330
1BE3
100
AcDbEntity
  8
寸法線
 62
     0
440
 16777216
370
    -2
100
AcDbBlockReference
  2
_Open30
 10
2340.000000000001
 20
3279.999999999999
 30
0.0
 41
20.0
 42
20.0
 43
20.0
 50
270.0
  0
INSERT
  5
2546
330
1BE3
100
AcDbEntity
  8
寸法線
 62
     0
440
 16777216
370
    -2
100
AcDbBlockReference
  2
_Open30
 10
2340.000000000001
 20
3369.999999999999
 30
0.0
 41
20.0
 42
20.0
 43
20.0
 50
90.0
  0
MTEXT
  5
2547
330
1BE3
100
AcDbEntity
  8
寸法線
 62
     0
440
 16777216
100
AcDbMText
 10
2310.0
 20
3324.999999999999
 30
0.0
 40
40.0
 41
0.0
 46
0.0
 71
     5
 72
     1
  1
90
 11
0.0000000000000001
 21
1.0
 31
0.0
 73
     1
 44
1.0
  0
POINT
  5
2548
330
1BE3
100
AcDbEntity
  8
Defpoints
 62
     0
440
 16777216
100
AcDbPoint
 10
2500.000000000001
 20
3279.999999999999
 30
0.0
  0
POINT
  5
2549
330
1BE3
100
AcDbEntity
  8
Defpoints
 62
     0
440
 16777216
100
AcDbPoint
 10
2508.000000000001
 20
3369.999999999999
 30
0.0
  0
POINT
  5
254A
330
1BE3
100
AcDbEntity
  8
Defpoints
 62
     0
440
 16777216
100
AcDbPoint
 10
2340.000000000001
 20
3369.999999999999
 30
0.0
  0
ENDBLK
  5
1BE5
330
1BE3
100
AcDbEntity
  8
0
100
AcDbBlockEnd
  0
BLOCK
  5
1BF6
330
1BF5
100
AcDbEntity
  8
0
100
AcDbBlockBegin
  2
*D20
 70
     1
 10
0.0
 20
0.0
 30
0.0
  3
*D20
  1

  0
LINE
  5
254B
330
1BF5
100
AcDbEntity
  8
寸法線
 62
     0
440
 16777216
370
    -2
100
AcDbLine
 10
2480.000000000001
 20
3279.999999999999
 30
0.0
 11
2330.000000000001
 21
3279.999999999999
 31
0.0
  0
LINE
  5
254C
330
1BF5
100
AcDbEntity
  8
寸法線
 62
     0
440
 16777216
370
    -2
100
AcDbLine
 10
2580.000000000001
 20
3269.999999999999
 30
0.0
 11
2330.000000000001
 21
3269.999999999999
 31
0.0
  0
LINE
  5
254D
330
1BF5
100
AcDbEntity
  8
寸法線
 62
     0
440
 16777216
370
    -2
100
AcDbLine
 10
2340.000000000001
 20
3299.999999999999
 30
0.0
 11
2340.000000000001
 21
3319.999999999999
 31
0.0
  0
LINE
  5
254E
330
1BF5
100
AcDbEntity
  8
寸法線
 62
     0
440
 16777216
370
    -2
100
AcDbLine
 10
2340.000000000001
 20
3250.0
 30
0.0
 11
2340.000000000001
 21
3229.999999999999
 31
0.0
  0
MTEXT
  5
254F
330
1BF5
100
AcDbEntity
  8
寸法線
 62
     0
440
 16777216
100
AcDbMText
 10
2268.01442569436
 20
3274.999999999999
 30
0.0
 40
40.0
 41
0.0
 46
0.0
 71
     5
 72
     1
  1
10
 11
0.0000000000000001
 21
1.0
 31
0.0
 73
     1
 44
1.0
  0
LINE
  5
2550
330
1BF5
100
AcDbEntity
  8
寸法線
 62
     0
440
 16777216
370
    -2
100
AcDbLine
 10
2340.000000000001
 20
3279.999999999999
 30
0.0
 11
2340.000000000001
 21
3269.999999999999
 31
0.0
  0
INSERT
  5
2551
330
1BF5
100
AcDbEntity
  8
寸法線
 62
     0
440
 16777216
370
    -2
100
AcDbBlockReference
  2
_Open30
 10
2340.000000000001
 20
3279.999999999999
 30
0.0
 41
20.0
 42
20.0
 43
20.0
 50
270.0
  0
INSERT
  5
2552
330
1BF5
100
AcDbEntity
  8
寸法線
 62
     0
440
 16777216
370
    -2
100
AcDbBlockReference
  2
_Open30
 10
2340.000000000001
 20
3269.999999999999
 30
0.0
 41
20.0
 42
20.0
 43
20.0
 50
90.0
  0
POINT
  5
2553
330
1BF5
100
AcDbEntity
  8
Defpoints
 62
     0
440
 16777216
100
AcDbPoint
 10
2500.000000000001
 20
3279.999999999999
 30
0.0
  0
POINT
  5
2554
330
1BF5
100
AcDbEntity
  8
Defpoints
 62
     0
440
 16777216
100
AcDbPoint
 10
2600.000000000001
 20
3269.999999999999
 30
0.0
  0
POINT
  5
2555
330
1BF5
100
AcDbEntity
  8
Defpoints
 62
     0
440
 16777216
100
AcDbPoint
 10
2340.000000000001
 20
3269.999999999999
 30
0.0
  0
ENDBLK
  5
1BF7
330
1BF5
100
AcDbEntity
  8
0
100
AcDbBlockEnd
  0
BLOCK
  5
1C20
330
1C1F
100
AcDbEntity
  8
0
100
AcDbBlockBegin
  2
*D21
 70
     1
 10
0.0
 20
0.0
 30
0.0
  3
*D21
  1

  0
LINE
  5
2556
330
1C1F
100
AcDbEntity
  8
寸法線
 62
     0
440
 16777216
370
    -2
100
AcDbLine
 10
2580.000000000001
 20
3269.999999999999
 30
0.0
 11
2330.000000000001
 21
3269.999999999999
 31
0.0
  0
LINE
  5
2557
330
1C1F
100
AcDbEntity
  8
寸法線
 62
     0
440
 16777216
370
    -2
100
AcDbLine
 10
2580.000000000001
 20
2669.999999999999
 30
0.0
 11
2330.0
 21
2669.999999999999
 31
0.0
  0
LINE
  5
2558
330
1C1F
100
AcDbEntity
  8
寸法線
 62
     0
440
 16777216
370
    -2
100
AcDbLine
 10
2340.000000000001
 20
3250.0
 30
0.0
 11
2340.000000000001
 21
2689.999999999999
 31
0.0
  0
INSERT
  5
2559
330
1C1F
100
AcDbEntity
  8
寸法線
 62
     0
440
 16777216
370
    -2
100
AcDbBlockReference
  2
_Open30
 10
2340.000000000001
 20
3269.999999999999
 30
0.0
 41
20.0
 42
20.0
 43
20.0
 50
90.0
  0
INSERT
  5
255A
330
1C1F
100
AcDbEntity
  8
寸法線
 62
     0
440
 16777216
370
    -2
100
AcDbBlockReference
  2
_Open30
 10
2340.000000000001
 20
2669.999999999999
 30
0.0
 41
20.0
 42
20.0
 43
20.0
 50
270.0
  0
MTEXT
  5
255B
330
1C1F
100
AcDbEntity
  8
寸法線
 62
     0
440
 16777216
100
AcDbMText
 10
2310.0
 20
2970.0
 30
0.0
 40
40.0
 41
0.0
 46
0.0
 71
     5
 72
     1
  1
600
 11
0.0000000000000001
 21
1.0
 31
0.0
 73
     1
 44
1.0
  0
POINT
  5
255C
330
1C1F
100
AcDbEntity
  8
Defpoints
 62
     0
440
 16777216
100
AcDbPoint
 10
2600.000000000001
 20
3269.999999999999
 30
0.0
  0
POINT
  5
255D
330
1C1F
100
AcDbEntity
  8
Defpoints
 62
     0
440
 16777216
100
AcDbPoint
 10
2600.000000000001
 20
2669.999999999999
 30
0.0
  0
POINT
  5
255E
330
1C1F
100
AcDbEntity
  8
Defpoints
 62
     0
440
 16777216
100
AcDbPoint
 10
2340.000000000001
 20
2669.999999999999
 30
0.0
  0
ENDBLK
  5
1C21
330
1C1F
100
AcDbEntity
  8
0
100
AcDbBlockEnd
  0
BLOCK
  5
1C32
330
1C31
100
AcDbEntity
  8
0
100
AcDbBlockBegin
  2
*D22
 70
     1
 10
0.0
 20
0.0
 30
0.0
  3
*D22
  1

  0
LINE
  5
255F
330
1C31
100
AcDbEntity
  8
寸法線
 62
     0
440
 16777216
370
    -2
100
AcDbLine
 10
2580.000000000001
 20
2669.999999999999
 30
0.0
 11
2330.0
 21
2669.999999999999
 31
0.0
  0
LINE
  5
2560
330
1C31
100
AcDbEntity
  8
寸法線
 62
     0
440
 16777216
370
    -2
100
AcDbLine
 10
2480.000000000001
 20
2639.999999999999
 30
0.0
 11
2330.0
 21
2639.999999999999
 31
0.0
  0
LINE
  5
2561
330
1C31
100
AcDbEntity
  8
寸法線
 62
     0
440
 16777216
370
    -2
100
AcDbLine
 10
2340.000000000001
 20
2689.999999999999
 30
0.0
 11
2340.000000000001
 21
2709.999999999999
 31
0.0
  0
LINE
  5
2562
330
1C31
100
AcDbEntity
  8
寸法線
 62
     0
440
 16777216
370
    -2
100
AcDbLine
 10
2340.000000000001
 20
2619.999999999999
 30
0.0
 11
2340.000000000001
 21
2600.0
 31
0.0
  0
LINE
  5
2563
330
1C31
100
AcDbEntity
  8
寸法線
 62
     0
440
 16777216
370
    -2
100
AcDbLine
 10
2340.000000000001
 20
2669.999999999999
 30
0.0
 11
2340.000000000001
 21
2639.999999999999
 31
0.0
  0
INSERT
  5
2564
330
1C31
100
AcDbEntity
  8
寸法線
 62
     0
440
 16777216
370
    -2
100
AcDbBlockReference
  2
_Open30
 10
2340.000000000001
 20
2669.999999999999
 30
0.0
 41
20.0
 42
20.0
 43
20.0
 50
270.0
  0
INSERT
  5
2565
330
1C31
100
AcDbEntity
  8
寸法線
 62
     0
440
 16777216
370
    -2
100
AcDbBlockReference
  2
_Open30
 10
2340.000000000001
 20
2639.999999999999
 30
0.0
 41
20.0
 42
20.0
 43
20.0
 50
90.0
  0
MTEXT
  5
2566
330
1C31
100
AcDbEntity
  8
寸法線
 62
     0
440
 16777216
100
AcDbMText
 10
2310.0
 20
2655.0
 30
0.0
 40
40.0
 41
0.0
 46
0.0
 71
     5
 72
     1
  1
30
 11
0.0000000000000001
 21
1.0
 31
0.0
 73
     1
 44
1.0
  0
POINT
  5
2567
330
1C31
100
AcDbEntity
  8
Defpoints
 62
     0
440
 16777216
100
AcDbPoint
 10
2600.000000000001
 20
2669.999999999999
 30
0.0
  0
POINT
  5
2568
330
1C31
100
AcDbEntity
  8
Defpoints
 62
     0
440
 16777216
100
AcDbPoint
 10
2500.000000000001
 20
2639.999999999999
 30
0.0
  0
POINT
  5
2569
330
1C31
100
AcDbEntity
  8
Defpoints
 62
     0
440
 16777216
100
AcDbPoint
 10
2340.000000000001
 20
2639.999999999999
 30
0.0
  0
ENDBLK
  5
1C33
330
1C31
100
AcDbEntity
  8
0
100
AcDbBlockEnd
  0
BLOCK
  5
1C46
330
1C45
100
AcDbEntity
  8
0
100
AcDbBlockBegin
  2
*D23
 70
     1
 10
0.0
 20
0.0
 30
0.0
  3
*D23
  1

  0
LINE
  5
256A
330
1C45
100
AcDbEntity
  8
寸法線
 62
     0
440
 16777216
370
    -2
100
AcDbLine
 10
2480.000000000001
 20
2639.999999999999
 30
0.0
 11
2330.0
 21
2639.999999999999
 31
0.0
  0
LINE
  5
256B
330
1C45
100
AcDbEntity
  8
寸法線
 62
     0
440
 16777216
370
    -2
100
AcDbLine
 10
2480.000000000001
 20
2569.999999999999
 30
0.0
 11
2330.0
 21
2569.999999999999
 31
0.0
  0
LINE
  5
256C
330
1C45
100
AcDbEntity
  8
寸法線
 62
     0
440
 16777216
370
    -2
100
AcDbLine
 10
2340.000000000001
 20
2619.999999999999
 30
0.0
 11
2340.000000000001
 21
2589.999999999999
 31
0.0
  0
LINE
  5
256D
330
1C45
100
AcDbEntity
  8
寸法線
 62
     0
440
 16777216
370
    -2
100
AcDbLine
 10
2340.000000000001
 20
2569.999999999999
 30
0.0
 11
2340.000000000001
 21
2477.614213197969
 31
0.0
  0
INSERT
  5
256E
330
1C45
100
AcDbEntity
  8
寸法線
 62
     0
440
 16777216
370
    -2
100
AcDbBlockReference
  2
_Open30
 10
2340.000000000001
 20
2639.999999999999
 30
0.0
 41
20.0
 42
20.0
 43
20.0
 50
90.0
  0
INSERT
  5
256F
330
1C45
100
AcDbEntity
  8
寸法線
 62
     0
440
 16777216
370
    -2
100
AcDbBlockReference
  2
_Open30
 10
2340.000000000001
 20
2569.999999999999
 30
0.0
 41
20.0
 42
20.0
 43
20.0
 50
270.0
  0
MTEXT
  5
2570
330
1C45
100
AcDbEntity
  8
寸法線
 62
     0
440
 16777216
100
AcDbMText
 10
2310.0
 20
2513.807106598985
 30
0.0
 40
40.0
 41
0.0
 46
0.0
 71
     5
 72
     1
  1
70
 11
0.0000000000000001
 21
1.0
 31
0.0
 73
     1
 44
1.0
  0
POINT
  5
2571
330
1C45
100
AcDbEntity
  8
Defpoints
 62
     0
440
 16777216
100
AcDbPoint
 10
2500.000000000001
 20
2639.999999999999
 30
0.0
  0
POINT
  5
2572
330
1C45
100
AcDbEntity
  8
Defpoints
 62
     0
440
 16777216
100
AcDbPoint
 10
2500.000000000001
 20
2569.999999999999
 30
0.0
  0
POINT
  5
2573
330
1C45
100
AcDbEntity
  8
Defpoints
 62
     0
440
 16777216
100
AcDbPoint
 10
2340.000000000001
 20
2569.999999999999
 30
0.0
  0
ENDBLK
  5
1C47
330
1C45
100
AcDbEntity
  8
0
100
AcDbBlockEnd
  0
BLOCK
  5
1C81
330
1C80
100
AcDbEntity
  8
0
100
AcDbBlockBegin
  2
*D24
 70
     1
 10
0.0
 20
0.0
 30
0.0
  3
*D24
  1

  0
LINE
  5
2574
330
1C80
100
AcDbEntity
  8
寸法線
 62
     0
440
 16777216
370
    -2
100
AcDbLine
 10
2650.000000000001
 20
2549.999999999999
 30
0.0
 11
2650.000000000001
 21
2399.999999999999
 31
0.0
  0
LINE
  5
2575
330
1C80
100
AcDbEntity
  8
寸法線
 62
     0
440
 16777216
370
    -2
100
AcDbLine
 10
2500.000000000001
 20
2549.999999999999
 30
0.0
 11
2500.000000000001
 21
2399.999999999999
 31
0.0
  0
LINE
  5
2576
330
1C80
100
AcDbEntity
  8
寸法線
 62
     0
440
 16777216
370
    -2
100
AcDbLine
 10
2630.000000000001
 20
2409.999999999999
 30
0.0
 11
2520.000000000001
 21
2409.999999999999
 31
0.0
  0
INSERT
  5
2577
330
1C80
100
AcDbEntity
  8
寸法線
 62
     0
440
 16777216
370
    -2
100
AcDbBlockReference
  2
_Open30
 10
2650.000000000001
 20
2409.999999999999
 30
0.0
 41
20.0
 42
20.0
 43
20.0
  0
INSERT
  5
2578
330
1C80
100
AcDbEntity
  8
寸法線
 62
     0
440
 16777216
370
    -2
100
AcDbBlockReference
  2
_Open30
 10
2500.000000000001
 20
2409.999999999999
 30
0.0
 41
20.0
 42
20.0
 43
20.0
 50
180.0
  0
MTEXT
  5
2579
330
1C80
100
AcDbEntity
  8
寸法線
 62
     0
440
 16777216
100
AcDbMText
 10
2575.000000000001
 20
2439.999999999999
 30
0.0
 40
40.0
 41
0.0
 46
0.0
 71
     5
 72
     1
  1
150
 73
     1
 44
1.0
  0
POINT
  5
257A
330
1C80
100
AcDbEntity
  8
Defpoints
 62
     0
440
 16777216
100
AcDbPoint
 10
2650.000000000001
 20
2569.999999999999
 30
0.0
  0
POINT
  5
257B
330
1C80
100
AcDbEntity
  8
Defpoints
 62
     0
440
 16777216
100
AcDbPoint
 10
2500.000000000001
 20
2569.999999999999
 30
0.0
  0
POINT
  5
257C
330
1C80
100
AcDbEntity
  8
Defpoints
 62
     0
440
 16777216
100
AcDbPoint
 10
2500.000000000001
 20
2409.999999999999
 30
0.0
  0
ENDBLK
  5
1C82
330
1C80
100
AcDbEntity
  8
0
100
AcDbBlockEnd
  0
BLOCK
  5
1C93
330
1C92
100
AcDbEntity
  8
0
100
AcDbBlockBegin
  2
*D25
 70
     1
 10
0.0
 20
0.0
 30
0.0
  3
*D25
  1

  0
LINE
  5
257D
330
1C92
100
AcDbEntity
  8
寸法線
 62
     0
440
 16777216
370
    -2
100
AcDbLine
 10
2650.000000000001
 20
2549.999999999999
 30
0.0
 11
2650.000000000001
 21
2399.999999999999
 31
0.0
  0
LINE
  5
257E
330
1C92
100
AcDbEntity
  8
寸法線
 62
     0
440
 16777216
370
    -2
100
AcDbLine
 10
3150.000000000001
 20
2549.999999999999
 30
0.0
 11
3150.000000000001
 21
2399.999999999999
 31
0.0
  0
LINE
  5
257F
330
1C92
100
AcDbEntity
  8
寸法線
 62
     0
440
 16777216
370
    -2
100
AcDbLine
 10
2670.000000000001
 20
2409.999999999999
 30
0.0
 11
3130.000000000001
 21
2409.999999999999
 31
0.0
  0
INSERT
  5
2580
330
1C92
100
AcDbEntity
  8
寸法線
 62
     0
440
 16777216
370
    -2
100
AcDbBlockReference
  2
_Open30
 10
2650.000000000001
 20
2409.999999999999
 30
0.0
 41
20.0
 42
20.0
 43
20.0
 50
180.0
  0
INSERT
  5
2581
330
1C92
100
AcDbEntity
  8
寸法線
 62
     0
440
 16777216
370
    -2
100
AcDbBlockReference
  2
_Open30
 10
3150.000000000001
 20
2409.999999999999
 30
0.0
 41
20.0
 42
20.0
 43
20.0
  0
MTEXT
  5
2582
330
1C92
100
AcDbEntity
  8
寸法線
 62
     0
440
 16777216
100
AcDbMText
 10
2900.000000000001
 20
2439.999999999999
 30
0.0
 40
40.0
 41
0.0
 46
0.0
 71
     5
 72
     1
  1
500
 73
     1
 44
1.0
  0
POINT
  5
2583
330
1C92
100
AcDbEntity
  8
Defpoints
 62
     0
440
 16777216
100
AcDbPoint
 10
2650.000000000001
 20
2569.999999999999
 30
0.0
  0
POINT
  5
2584
330
1C92
100
AcDbEntity
  8
Defpoints
 62
     0
440
 16777216
100
AcDbPoint
 10
3150.000000000001
 20
2569.999999999999
 30
0.0
  0
POINT
  5
2585
330
1C92
100
AcDbEntity
  8
Defpoints
 62
     0
440
 16777216
100
AcDbPoint
 10
3150.000000000001
 20
2409.999999999999
 30
0.0
  0
ENDBLK
  5
1C94
330
1C92
100
AcDbEntity
  8
0
100
AcDbBlockEnd
  0
BLOCK
  5
1CA5
330
1CA4
100
AcDbEntity
  8
0
100
AcDbBlockBegin
  2
*D26
 70
     1
 10
0.0
 20
0.0
 30
0.0
  3
*D26
  1

  0
LINE
  5
2586
330
1CA4
100
AcDbEntity
  8
寸法線
 62
     0
440
 16777216
370
    -2
100
AcDbLine
 10
3150.000000000001
 20
2549.999999999999
 30
0.0
 11
3150.000000000001
 21
2399.999999999997
 31
0.0
  0
LINE
  5
2587
330
1CA4
100
AcDbEntity
  8
寸法線
 62
     0
440
 16777216
370
    -2
100
AcDbLine
 10
3300.000000000001
 20
2549.999999999999
 30
0.0
 11
3300.000000000001
 21
2399.999999999997
 31
0.0
  0
LINE
  5
2588
330
1CA4
100
AcDbEntity
  8
寸法線
 62
     0
440
 16777216
370
    -2
100
AcDbLine
 10
3170.000000000001
 20
2409.999999999997
 30
0.0
 11
3280.000000000001
 21
2409.999999999997
 31
0.0
  0
INSERT
  5
2589
330
1CA4
100
AcDbEntity
  8
寸法線
 62
     0
440
 16777216
370
    -2
100
AcDbBlockReference
  2
_Open30
 10
3150.000000000001
 20
2409.999999999997
 30
0.0
 41
20.0
 42
20.0
 43
20.0
 50
180.0
  0
INSERT
  5
258A
330
1CA4
100
AcDbEntity
  8
寸法線
 62
     0
440
 16777216
370
    -2
100
AcDbBlockReference
  2
_Open30
 10
3300.000000000001
 20
2409.999999999997
 30
0.0
 41
20.0
 42
20.0
 43
20.0
  0
MTEXT
  5
258B
330
1CA4
100
AcDbEntity
  8
寸法線
 62
     0
440
 16777216
100
AcDbMText
 10
3225.000000000001
 20
2439.999999999998
 30
0.0
 40
40.0
 41
0.0
 46
0.0
 71
     5
 72
     1
  1
150
 73
     1
 44
1.0
  0
POINT
  5
258C
330
1CA4
100
AcDbEntity
  8
Defpoints
 62
     0
440
 16777216
100
AcDbPoint
 10
3150.000000000001
 20
2569.999999999999
 30
0.0
  0
POINT
  5
258D
330
1CA4
100
AcDbEntity
  8
Defpoints
 62
     0
440
 16777216
100
AcDbPoint
 10
3300.000000000001
 20
2569.999999999999
 30
0.0
  0
POINT
  5
258E
330
1CA4
100
AcDbEntity
  8
Defpoints
 62
     0
440
 16777216
100
AcDbPoint
 10
3300.000000000001
 20
2409.999999999997
 30
0.0
  0
ENDBLK
  5
1CA6
330
1CA4
100
AcDbEntity
  8
0
100
AcDbBlockEnd
  0
BLOCK
  5
1D0E
330
1D0D
100
AcDbEntity
  8
0
100
AcDbBlockBegin
  2
*D27
 70
     1
 10
0.0
 20
0.0
 30
0.0
  3
*D27
  1

  0
LINE
  5
258F
330
1D0D
100
AcDbEntity
  8
寸法線
 62
     0
440
 16777216
370
    -2
100
AcDbLine
 10
2600.000000000001
 20
2989.999999999999
 30
0.0
 11
2600.000000000001
 21
2979.999999999999
 31
0.0
  0
LINE
  5
2590
330
1D0D
100
AcDbEntity
  8
寸法線
 62
     0
440
 16777216
370
    -2
100
AcDbLine
 10
2500.000000000001
 20
2989.999999999999
 30
0.0
 11
2500.000000000001
 21
2979.999999999999
 31
0.0
  0
LINE
  5
2591
330
1D0D
100
AcDbEntity
  8
寸法線
 62
     0
440
 16777216
370
    -2
100
AcDbLine
 10
2580.000000000001
 20
2969.999999999999
 30
0.0
 11
2520.000000000001
 21
2969.999999999999
 31
0.0
  0
INSERT
  5
2592
330
1D0D
100
AcDbEntity
  8
寸法線
 62
     0
440
 16777216
370
    -2
100
AcDbBlockReference
  2
_Open30
 10
2600.000000000001
 20
2969.999999999999
 30
0.0
 41
20.0
 42
20.0
 43
20.0
  0
INSERT
  5
2593
330
1D0D
100
AcDbEntity
  8
寸法線
 62
     0
440
 16777216
370
    -2
100
AcDbBlockReference
  2
_Open30
 10
2500.000000000001
 20
2969.999999999999
 30
0.0
 41
20.0
 42
20.0
 43
20.0
 50
180.0
  0
MTEXT
  5
2594
330
1D0D
100
AcDbEntity
  8
寸法線
 62
     0
440
 16777216
100
AcDbMText
 10
2550.000000000001
 20
3000.0
 30
0.0
 40
40.0
 41
0.0
 46
0.0
 71
     5
 72
     1
  1
100
 73
     1
 44
1.0
  0
POINT
  5
2595
330
1D0D
100
AcDbEntity
  8
Defpoints
 62
     0
440
 16777216
100
AcDbPoint
 10
2600.000000000001
 20
2969.999999999999
 30
0.0
  0
POINT
  5
2596
330
1D0D
100
AcDbEntity
  8
Defpoints
 62
     0
440
 16777216
100
AcDbPoint
 10
2500.000000000001
 20
2969.999999999999
 30
0.0
  0
POINT
  5
2597
330
1D0D
100
AcDbEntity
  8
Defpoints
 62
     0
440
 16777216
100
AcDbPoint
 10
2500.000000000001
 20
2969.999999999999
 30
0.0
  0
ENDBLK
  5
1D0F
330
1D0D
100
AcDbEntity
  8
0
100
AcDbBlockEnd
  0
BLOCK
  5
1D1E
330
1D1D
100
AcDbEntity
  8
0
100
AcDbBlockBegin
  2
*D28
 70
     1
 10
0.0
 20
0.0
 30
0.0
  3
*D28
  1

  0
LINE
  5
2598
330
1D1D
100
AcDbEntity
  8
寸法線
 62
     0
440
 16777216
370
    -2
100
AcDbLine
 10
2600.000000000001
 20
2989.999999999999
 30
0.0
 11
2600.000000000001
 21
2979.999999999999
 31
0.0
  0
LINE
  5
2599
330
1D1D
100
AcDbEntity
  8
寸法線
 62
     0
440
 16777216
370
    -2
100
AcDbLine
 10
2650.000000000001
 20
2989.999999999999
 30
0.0
 11
2650.000000000001
 21
2979.999999999999
 31
0.0
  0
LINE
  5
259A
330
1D1D
100
AcDbEntity
  8
寸法線
 62
     0
440
 16777216
370
    -2
100
AcDbLine
 10
2580.000000000001
 20
2969.999999999999
 30
0.0
 11
2560.000000000001
 21
2969.999999999999
 31
0.0
  0
LINE
  5
259B
330
1D1D
100
AcDbEntity
  8
寸法線
 62
     0
440
 16777216
370
    -2
100
AcDbLine
 10
2670.000000000001
 20
2969.999999999999
 30
0.0
 11
2762.385786802032
 21
2969.999999999999
 31
0.0
  0
LINE
  5
259C
330
1D1D
100
AcDbEntity
  8
寸法線
 62
     0
440
 16777216
370
    -2
100
AcDbLine
 10
2600.000000000001
 20
2969.999999999999
 30
0.0
 11
2650.000000000001
 21
2969.999999999999
 31
0.0
  0
INSERT
  5
259D
330
1D1D
100
AcDbEntity
  8
寸法線
 62
     0
440
 16777216
370
    -2
100
AcDbBlockReference
  2
_Open30
 10
2600.000000000001
 20
2969.999999999999
 30
0.0
 41
20.0
 42
20.0
 43
20.0
  0
INSERT
  5
259E
330
1D1D
100
AcDbEntity
  8
寸法線
 62
     0
440
 16777216
370
    -2
100
AcDbBlockReference
  2
_Open30
 10
2650.000000000001
 20
2969.999999999999
 30
0.0
 41
20.0
 42
20.0
 43
20.0
 50
180.0
  0
MTEXT
  5
259F
330
1D1D
100
AcDbEntity
  8
寸法線
 62
     0
440
 16777216
100
AcDbMText
 10
2726.192893401016
 20
3000.0
 30
0.0
 40
40.0
 41
0.0
 46
0.0
 71
     5
 72
     1
  1
50
 73
     1
 44
1.0
  0
POINT
  5
25A0
330
1D1D
100
AcDbEntity
  8
Defpoints
 62
     0
440
 16777216
100
AcDbPoint
 10
2600.000000000001
 20
2969.999999999999
 30
0.0
  0
POINT
  5
25A1
330
1D1D
100
AcDbEntity
  8
Defpoints
 62
     0
440
 16777216
100
AcDbPoint
 10
2650.000000000001
 20
2969.999999999999
 30
0.0
  0
POINT
  5
25A2
330
1D1D
100
AcDbEntity
  8
Defpoints
 62
     0
440
 16777216
100
AcDbPoint
 10
2650.000000000001
 20
2969.999999999999
 30
0.0
  0
ENDBLK
  5
1D1F
330
1D1D
100
AcDbEntity
  8
0
100
AcDbBlockEnd
  0
BLOCK
  5
1D30
330
1D2F
100
AcDbEntity
  8
0
100
AcDbBlockBegin
  2
*D29
 70
     1
 10
0.0
 20
0.0
 30
0.0
  3
*D29
  1

  0
LINE
  5
25A3
330
1D2F
100
AcDbEntity
  8
寸法線
 62
     0
440
 16777216
370
    -2
100
AcDbLine
 10
900.0000000000008
 20
2549.999999999999
 30
0.0
 11
900.0000000000008
 21
2359.999999999999
 31
0.0
  0
LINE
  5
25A4
330
1D2F
100
AcDbEntity
  8
寸法線
 62
     0
440
 16777216
370
    -2
100
AcDbLine
 10
1700.000000000001
 20
2549.999999999999
 30
0.0
 11
1700.000000000001
 21
2359.999999999999
 31
0.0
  0
LINE
  5
25A5
330
1D2F
100
AcDbEntity
  8
寸法線
 62
     0
440
 16777216
370
    -2
100
AcDbLine
 10
920.0000000000008
 20
2369.999999999999
 30
0.0
 11
1680.000000000001
 21
2369.999999999999
 31
0.0
  0
INSERT
  5
25A6
330
1D2F
100
AcDbEntity
  8
寸法線
 62
     0
440
 16777216
370
    -2
100
AcDbBlockReference
  2
_Open30
 10
900.0000000000008
 20
2369.999999999999
 30
0.0
 41
20.0
 42
20.0
 43
20.0
 50
180.0
  0
INSERT
  5
25A7
330
1D2F
100
AcDbEntity
  8
寸法線
 62
     0
440
 16777216
370
    -2
100
AcDbBlockReference
  2
_Open30
 10
1700.000000000001
 20
2369.999999999999
 30
0.0
 41
20.0
 42
20.0
 43
20.0
  0
MTEXT
  5
25A8
330
1D2F
100
AcDbEntity
  8
寸法線
 62
     0
440
 16777216
100
AcDbMText
 10
1300.000000000001
 20
2399.999999999999
 30
0.0
 40
40.0
 41
0.0
 46
0.0
 71
     5
 72
     1
  1
800
 73
     1
 44
1.0
  0
POINT
  5
25A9
330
1D2F
100
AcDbEntity
  8
Defpoints
 62
     0
440
 16777216
100
AcDbPoint
 10
900.0000000000008
 20
2569.999999999999
 30
0.0
  0
POINT
  5
25AA
330
1D2F
100
AcDbEntity
  8
Defpoints
 62
     0
440
 16777216
100
AcDbPoint
 10
1700.000000000001
 20
2569.999999999999
 30
0.0
  0
POINT
  5
25AB
330
1D2F
100
AcDbEntity
  8
Defpoints
 62
     0
440
 16777216
100
AcDbPoint
 10
1700.000000000001
 20
2369.999999999999
 30
0.0
  0
ENDBLK
  5
1D31
330
1D2F
100
AcDbEntity
  8
0
100
AcDbBlockEnd
  0
BLOCK
  5
1D43
330
1D42
100
AcDbEntity
  8
0
100
AcDbBlockBegin
  2
*D30
 70
     1
 10
0.0
 20
0.0
 30
0.0
  3
*D30
  1

  0
LINE
  5
264D
330
1D42
100
AcDbEntity
  8
寸法線
 62
     0
440
 16777216
370
    -2
100
AcDbLine
 10
1000.000000000001
 20
949.9999999999991
 30
0.0
 11
1000.000000000001
 21
799.9999999999984
 31
0.0
  0
LINE
  5
264E
330
1D42
100
AcDbEntity
  8
寸法線
 62
     0
440
 16777216
370
    -2
100
AcDbLine
 10
900.0000000000008
 20
949.9999999999991
 30
0.0
 11
900.0000000000008
 21
799.9999999999984
 31
0.0
  0
LINE
  5
264F
330
1D42
100
AcDbEntity
  8
寸法線
 62
     0
440
 16777216
370
    -2
100
AcDbLine
 10
980.0000000000009
 20
809.9999999999983
 30
0.0
 11
920.0000000000009
 21
809.9999999999983
 31
0.0
  0
INSERT
  5
2650
330
1D42
100
AcDbEntity
  8
寸法線
 62
     0
440
 16777216
370
    -2
100
AcDbBlockReference
  2
_Open30
 10
1000.000000000001
 20
809.9999999999983
 30
0.0
 41
20.0
 42
20.0
 43
20.0
  0
INSERT
  5
2651
330
1D42
100
AcDbEntity
  8
寸法線
 62
     0
440
 16777216
370
    -2
100
AcDbBlockReference
  2
_Open30
 10
900.0000000000008
 20
809.9999999999983
 30
0.0
 41
20.0
 42
20.0
 43
20.0
 50
180.0
  0
MTEXT
  5
2652
330
1D42
100
AcDbEntity
  8
寸法線
 62
     0
440
 16777216
100
AcDbMText
 10
950.0000000000008
 20
839.9999999999984
 30
0.0
 40
40.0
 41
0.0
 46
0.0
 71
     5
 72
     1
  1
100
 73
     1
 44
1.0
  0
POINT
  5
2653
330
1D42
100
AcDbEntity
  8
Defpoints
 62
     0
440
 16777216
100
AcDbPoint
 10
1000.000000000001
 20
969.999999999999
 30
0.0
  0
POINT
  5
2654
330
1D42
100
AcDbEntity
  8
Defpoints
 62
     0
440
 16777216
100
AcDbPoint
 10
900.0000000000008
 20
969.999999999999
 30
0.0
  0
POINT
  5
2655
330
1D42
100
AcDbEntity
  8
Defpoints
 62
     0
440
 16777216
100
AcDbPoint
 10
900.0000000000008
 20
809.9999999999983
 30
0.0
  0
ENDBLK
  5
1D44
330
1D42
100
AcDbEntity
  8
0
100
AcDbBlockEnd
  0
BLOCK
  5
1D5E
330
1D5D
100
AcDbEntity
  8
0
100
AcDbBlockBegin
  2
*D31
 70
     1
 10
0.0
 20
0.0
 30
0.0
  3
*D31
  1

  0
LINE
  5
2656
330
1D5D
100
AcDbEntity
  8
寸法線
 62
     0
440
 16777216
370
    -2
100
AcDbLine
 10
1000.000000000001
 20
949.9999999999991
 30
0.0
 11
1000.000000000001
 21
799.9999999999984
 31
0.0
  0
LINE
  5
2657
330
1D5D
100
AcDbEntity
  8
寸法線
 62
     0
440
 16777216
370
    -2
100
AcDbLine
 10
1050.000000000001
 20
1049.999999999999
 30
0.0
 11
1050.000000000001
 21
799.9999999999984
 31
0.0
  0
LINE
  5
2658
330
1D5D
100
AcDbEntity
  8
寸法線
 62
     0
440
 16777216
370
    -2
100
AcDbLine
 10
980.0000000000009
 20
809.9999999999983
 30
0.0
 11
960.0000000000008
 21
809.9999999999983
 31
0.0
  0
LINE
  5
2659
330
1D5D
100
AcDbEntity
  8
寸法線
 62
     0
440
 16777216
370
    -2
100
AcDbLine
 10
1070.000000000001
 20
809.9999999999983
 30
0.0
 11
1090.000000000001
 21
809.9999999999983
 31
0.0
  0
MTEXT
  5
265A
330
1D5D
100
AcDbEntity
  8
寸法線
 62
     0
440
 16777216
100
AcDbMText
 10
1025.000000000001
 20
780.3445938805307
 30
0.0
 40
40.0
 41
0.0
 46
0.0
 71
     5
 72
     1
  1
50
 73
     1
 44
1.0
  0
LINE
  5
265B
330
1D5D
100
AcDbEntity
  8
寸法線
 62
     0
440
 16777216
370
    -2
100
AcDbLine
 10
1000.000000000001
 20
809.9999999999983
 30
0.0
 11
1050.000000000001
 21
809.9999999999983
 31
0.0
  0
INSERT
  5
265C
330
1D5D
100
AcDbEntity
  8
寸法線
 62
     0
440
 16777216
370
    -2
100
AcDbBlockReference
  2
_Open30
 10
1000.000000000001
 20
809.9999999999983
 30
0.0
 41
20.0
 42
20.0
 43
20.0
  0
INSERT
  5
265D
330
1D5D
100
AcDbEntity
  8
寸法線
 62
     0
440
 16777216
370
    -2
100
AcDbBlockReference
  2
_Open30
 10
1050.000000000001
 20
809.9999999999983
 30
0.0
 41
20.0
 42
20.0
 43
20.0
 50
180.0
  0
POINT
  5
265E
330
1D5D
100
AcDbEntity
  8
Defpoints
 62
     0
440
 16777216
100
AcDbPoint
 10
1000.000000000001
 20
969.999999999999
 30
0.0
  0
POINT
  5
265F
330
1D5D
100
AcDbEntity
  8
Defpoints
 62
     0
440
 16777216
100
AcDbPoint
 10
1050.000000000001
 20
1069.999999999999
 30
0.0
  0
POINT
  5
2660
330
1D5D
100
AcDbEntity
  8
Defpoints
 62
     0
440
 16777216
100
AcDbPoint
 10
1050.000000000001
 20
809.9999999999983
 30
0.0
  0
ENDBLK
  5
1D5F
330
1D5D
100
AcDbEntity
  8
0
100
AcDbBlockEnd
  0
BLOCK
  5
1D72
330
1D71
100
AcDbEntity
  8
0
100
AcDbBlockBegin
  2
*D32
 70
     1
 10
0.0
 20
0.0
 30
0.0
  3
*D32
  1

  0
LINE
  5
2661
330
1D71
100
AcDbEntity
  8
寸法線
 62
     0
440
 16777216
370
    -2
100
AcDbLine
 10
1050.000000000001
 20
1049.999999999999
 30
0.0
 11
1050.000000000001
 21
799.9999999999984
 31
0.0
  0
LINE
  5
2662
330
1D71
100
AcDbEntity
  8
寸法線
 62
     0
440
 16777216
370
    -2
100
AcDbLine
 10
1550.000000000001
 20
1049.999999999998
 30
0.0
 11
1550.000000000001
 21
799.9999999999984
 31
0.0
  0
LINE
  5
2663
330
1D71
100
AcDbEntity
  8
寸法線
 62
     0
440
 16777216
370
    -2
100
AcDbLine
 10
1070.000000000001
 20
809.9999999999983
 30
0.0
 11
1530.000000000001
 21
809.9999999999983
 31
0.0
  0
INSERT
  5
2664
330
1D71
100
AcDbEntity
  8
寸法線
 62
     0
440
 16777216
370
    -2
100
AcDbBlockReference
  2
_Open30
 10
1050.000000000001
 20
809.9999999999983
 30
0.0
 41
20.0
 42
20.0
 43
20.0
 50
180.0
  0
INSERT
  5
2665
330
1D71
100
AcDbEntity
  8
寸法線
 62
     0
440
 16777216
370
    -2
100
AcDbBlockReference
  2
_Open30
 10
1550.000000000001
 20
809.9999999999983
 30
0.0
 41
20.0
 42
20.0
 43
20.0
  0
MTEXT
  5
2666
330
1D71
100
AcDbEntity
  8
寸法線
 62
     0
440
 16777216
100
AcDbMText
 10
1300.000000000001
 20
839.9999999999984
 30
0.0
 40
40.0
 41
0.0
 46
0.0
 71
     5
 72
     1
  1
500
 73
     1
 44
1.0
  0
POINT
  5
2667
330
1D71
100
AcDbEntity
  8
Defpoints
 62
     0
440
 16777216
100
AcDbPoint
 10
1050.000000000001
 20
1069.999999999999
 30
0.0
  0
POINT
  5
2668
330
1D71
100
AcDbEntity
  8
Defpoints
 62
     0
440
 16777216
100
AcDbPoint
 10
1550.000000000001
 20
1069.999999999998
 30
0.0
  0
POINT
  5
2669
330
1D71
100
AcDbEntity
  8
Defpoints
 62
     0
440
 16777216
100
AcDbPoint
 10
1550.000000000001
 20
809.9999999999983
 30
0.0
  0
ENDBLK
  5
1D73
330
1D71
100
AcDbEntity
  8
0
100
AcDbBlockEnd
  0
BLOCK
  5
1D84
330
1D83
100
AcDbEntity
  8
0
100
AcDbBlockBegin
  2
*D33
 70
     1
 10
0.0
 20
0.0
 30
0.0
  3
*D33
  1

  0
LINE
  5
266A
330
1D83
100
AcDbEntity
  8
寸法線
 62
     0
440
 16777216
370
    -2
100
AcDbLine
 10
1550.000000000001
 20
1049.999999999998
 30
0.0
 11
1550.000000000001
 21
799.9999999999984
 31
0.0
  0
LINE
  5
266B
330
1D83
100
AcDbEntity
  8
寸法線
 62
     0
440
 16777216
370
    -2
100
AcDbLine
 10
1600.000000000001
 20
949.9999999999991
 30
0.0
 11
1600.000000000001
 21
799.9999999999984
 31
0.0
  0
LINE
  5
266C
330
1D83
100
AcDbEntity
  8
寸法線
 62
     0
440
 16777216
370
    -2
100
AcDbLine
 10
1530.000000000001
 20
809.9999999999983
 30
0.0
 11
1510.000000000001
 21
809.9999999999983
 31
0.0
  0
LINE
  5
266D
330
1D83
100
AcDbEntity
  8
寸法線
 62
     0
440
 16777216
370
    -2
100
AcDbLine
 10
1620.000000000001
 20
809.9999999999983
 30
0.0
 11
1640.000000000001
 21
809.9999999999983
 31
0.0
  0
MTEXT
  5
266E
330
1D83
100
AcDbEntity
  8
寸法線
 62
     0
440
 16777216
100
AcDbMText
 10
1575.000000000001
 20
778.9746195816515
 30
0.0
 40
40.0
 41
0.0
 46
0.0
 71
     5
 72
     1
  1
50
 73
     1
 44
1.0
  0
LINE
  5
266F
330
1D83
100
AcDbEntity
  8
寸法線
 62
     0
440
 16777216
370
    -2
100
AcDbLine
 10
1550.000000000001
 20
809.9999999999983
 30
0.0
 11
1600.000000000001
 21
809.9999999999983
 31
0.0
  0
INSERT
  5
2670
330
1D83
100
AcDbEntity
  8
寸法線
 62
     0
440
 16777216
370
    -2
100
AcDbBlockReference
  2
_Open30
 10
1550.000000000001
 20
809.9999999999983
 30
0.0
 41
20.0
 42
20.0
 43
20.0
  0
INSERT
  5
2671
330
1D83
100
AcDbEntity
  8
寸法線
 62
     0
440
 16777216
370
    -2
100
AcDbBlockReference
  2
_Open30
 10
1600.000000000001
 20
809.9999999999983
 30
0.0
 41
20.0
 42
20.0
 43
20.0
 50
180.0
  0
POINT
  5
2672
330
1D83
100
AcDbEntity
  8
Defpoints
 62
     0
440
 16777216
100
AcDbPoint
 10
1550.000000000001
 20
1069.999999999998
 30
0.0
  0
POINT
  5
2673
330
1D83
100
AcDbEntity
  8
Defpoints
 62
     0
440
 16777216
100
AcDbPoint
 10
1600.000000000001
 20
969.999999999999
 30
0.0
  0
POINT
  5
2674
330
1D83
100
AcDbEntity
  8
Defpoints
 62
     0
440
 16777216
100
AcDbPoint
 10
1600.000000000001
 20
809.9999999999983
 30
0.0
  0
ENDBLK
  5
1D85
330
1D83
100
AcDbEntity
  8
0
100
AcDbBlockEnd
  0
BLOCK
  5
1D98
330
1D97
100
AcDbEntity
  8
0
100
AcDbBlockBegin
  2
*D34
 70
     1
 10
0.0
 20
0.0
 30
0.0
  3
*D34
  1

  0
LINE
  5
2675
330
1D97
100
AcDbEntity
  8
寸法線
 62
     0
440
 16777216
370
    -2
100
AcDbLine
 10
1600.000000000001
 20
949.9999999999991
 30
0.0
 11
1600.000000000001
 21
799.9999999999984
 31
0.0
  0
LINE
  5
2676
330
1D97
100
AcDbEntity
  8
寸法線
 62
     0
440
 16777216
370
    -2
100
AcDbLine
 10
1700.000000000001
 20
949.9999999999991
 30
0.0
 11
1700.000000000001
 21
799.9999999999984
 31
0.0
  0
LINE
  5
2677
330
1D97
100
AcDbEntity
  8
寸法線
 62
     0
440
 16777216
370
    -2
100
AcDbLine
 10
1620.000000000001
 20
809.9999999999983
 30
0.0
 11
1680.000000000001
 21
809.9999999999983
 31
0.0
  0
INSERT
  5
2678
330
1D97
100
AcDbEntity
  8
寸法線
 62
     0
440
 16777216
370
    -2
100
AcDbBlockReference
  2
_Open30
 10
1600.000000000001
 20
809.9999999999983
 30
0.0
 41
20.0
 42
20.0
 43
20.0
 50
180.0
  0
INSERT
  5
2679
330
1D97
100
AcDbEntity
  8
寸法線
 62
     0
440
 16777216
370
    -2
100
AcDbBlockReference
  2
_Open30
 10
1700.000000000001
 20
809.9999999999983
 30
0.0
 41
20.0
 42
20.0
 43
20.0
  0
MTEXT
  5
267A
330
1D97
100
AcDbEntity
  8
寸法線
 62
     0
440
 16777216
100
AcDbMText
 10
1650.000000000001
 20
839.9999999999984
 30
0.0
 40
40.0
 41
0.0
 46
0.0
 71
     5
 72
     1
  1
100
 73
     1
 44
1.0
  0
POINT
  5
267B
330
1D97
100
AcDbEntity
  8
Defpoints
 62
     0
440
 16777216
100
AcDbPoint
 10
1600.000000000001
 20
969.999999999999
 30
0.0
  0
POINT
  5
267C
330
1D97
100
AcDbEntity
  8
Defpoints
 62
     0
440
 16777216
100
AcDbPoint
 10
1700.000000000001
 20
969.999999999999
 30
0.0
  0
POINT
  5
267D
330
1D97
100
AcDbEntity
  8
Defpoints
 62
     0
440
 16777216
100
AcDbPoint
 10
1700.000000000001
 20
809.9999999999983
 30
0.0
  0
ENDBLK
  5
1D99
330
1D97
100
AcDbEntity
  8
0
100
AcDbBlockEnd
  0
ENDSEC
  0
SECTION
  2
ENTITIES
  0
LINE
  5
190B
330
1F
100
AcDbEntity
  8
図面枠
100
AcDbLine
 10
4000.0
 20
199.9999999999988
 30
0.0
 11
4000.0
 21
5739.999999999999
 31
0.0
  0
LINE
  5
190C
330
1F
100
AcDbEntity
  8
図面枠
100
AcDbLine
 10
4000.0
 20
199.9999999999988
 30
0.0
 11
200.0
 21
199.9999999999999
 31
0.0
  0
LINE
  5
190D
330
1F
100
AcDbEntity
  8
図面枠
100
AcDbLine
 10
200.0
 20
199.9999999999999
 30
0.0
 11
200.0000000000009
 21
5740.0
 31
0.0
  0
LINE
  5
190E
330
1F
100
AcDbEntity
  8
図面枠
100
AcDbLine
 10
4000.0
 20
5739.999999999999
 30
0.0
 11
200.0000000000014
 21
5740.0
 31
0.0
  0
LINE
  5
190F
330
1F
100
AcDbEntity
  8
タイトル枠
100
AcDbLine
 10
2600.0
 20
339.9999999999989
 30
0.0
 11
4000.0
 21
339.9999999999989
 31
0.0
  0
LINE
  5
1910
330
1F
100
AcDbEntity
  8
タイトル枠
100
AcDbLine
 10
2600.0
 20
479.999999999999
 30
0.0
 11
4000.0
 21
479.9999999999989
 31
0.0
  0
LINE
  5
1911
330
1F
100
AcDbEntity
  8
タイトル枠
100
AcDbLine
 10
2600.0
 20
619.9999999999989
 30
0.0
 11
4000.0
 21
619.9999999999988
 31
0.0
  0
LINE
  5
1912
330
1F
100
AcDbEntity
  8
タイトル枠
100
AcDbLine
 10
2600.0
 20
759.9999999999989
 30
0.0
 11
4000.0
 21
759.9999999999988
 31
0.0
  0
LINE
  5
1913
330
1F
100
AcDbEntity
  8
タイトル枠
100
AcDbLine
 10
3000.0
 20
339.9999999999989
 30
0.0
 11
3000.0
 21
759.9999999999989
 31
0.0
  0
LINE
  5
1914
330
1F
100
AcDbEntity
  8
タイトル枠
100
AcDbLine
 10
2600.0
 20
199.9999999999991
 30
0.0
 11
2600.0
 21
759.9999999999989
 31
0.0
  0
LINE
  5
1915
330
1F
100
AcDbEntity
  8
タイトル枠
100
AcDbLine
 10
2600.0
 20
199.9999999999991
 30
0.0
 11
4000.0
 21
199.9999999999988
 31
0.0
  0
LINE
  5
1916
330
1F
100
AcDbEntity
  8
タイトル枠
100
AcDbLine
 10
4000.0
 20
199.9999999999988
 30
0.0
 11
4000.0
 21
759.9999999999988
 31
0.0
  0
TEXT
  5
191D
102
{ACAD_XDICTIONARY
360
191E
102
}
330
1F
100
AcDbEntity
  8
文字
100
AcDbText
 10
2670.05076142132
 20
384.9999999999989
 30
0.0
 40
50.0
  1
参考重量
  7
Annotative
 72
     1
 11
2800.0
 21
409.9999999999988
 31
0.0
100
AcDbText
 73
     2
1001
AcadAnnotative
1000
AnnotativeData
1002
{
1070
     1
1070
     1
1002
}
  0
TEXT
  5
1922
102
{ACAD_XDICTIONARY
360
1923
102
}
330
1F
100
AcDbEntity
  8
文字
100
AcDbText
 10
3390.482233502539
 20
384.9999999999988
 30
0.0
 40
50.0
  1
４１１ kg
  7
Annotative
 72
     1
 11
3500.0
 21
409.9999999999988
 31
0.0
100
AcDbText
 73
     2
1001
AcadAnnotative
1000
AnnotativeData
1002
{
1070
     1
1070
     1
1002
}
  0
TEXT
  5
1927
102
{ACAD_XDICTIONARY
360
1928
102
}
330
1F
100
AcDbEntity
  8
文字
100
AcDbText
 10
2789.720812182741
 20
244.999999999999
 30
0.0
 40
50.0
  1
栗本建材株式会社　クリモトコンクリート
  7
Annotative
 72
     1
 11
3299.999999999999
 21
269.999999999999
 31
0.0
100
AcDbText
 73
     2
1001
AcadAnnotative
1000
AnnotativeData
1002
{
1070
     1
1070
     1
1002
}
  0
TEXT
  5
192C
102
{ACAD_XDICTIONARY
360
192D
102
}
330
1F
100
AcDbEntity
  8
文字
100
AcDbText
 10
2715.862944162437
 20
524.999999999999
 30
0.0
 40
50.0
  1
サイズ
  7
Annotative
 72
     1
 11
2800.0
 21
549.999999999999
 31
0.0
100
AcDbText
 73
     2
1001
AcadAnnotative
1000
AnnotativeData
1002
{
1070
     1
1070
     1
1002
}
  0
TEXT
  5
1931
102
{ACAD_XDICTIONARY
360
1932
102
}
330
1F
100
AcDbEntity
  8
文字
100
AcDbText
 10
3242.005076142132
 20
524.9999999999988
 30
0.0
 40
50.0
  1
５００×５００×８００
  7
Annotative
 72
     1
 11
3500.0
 21
549.9999999999988
 31
0.0
100
AcDbText
 73
     2
1001
AcadAnnotative
1000
AnnotativeData
1002
{
1070
     1
1070
     1
1002
}
  0
TEXT
  5
1936
102
{ACAD_XDICTIONARY
360
1937
102
}
330
1F
100
AcDbEntity
  8
文字
100
AcDbText
 10
2702.53807106599
 20
664.9999999999989
 30
0.0
 40
50.0
  1
製品名
  7
Annotative
 72
     1
 11
2800.0
 21
689.9999999999989
 31
0.0
100
AcDbText
 73
     2
1001
AcadAnnotative
1000
AnnotativeData
1002
{
1070
     1
1070
     1
1002
}
  0
TEXT
  5
193B
102
{ACAD_XDICTIONARY
360
193C
102
}
330
1F
100
AcDbEntity
  8
文字
100
AcDbText
 10
3358.121827411168
 20
664.9999999999988
 30
0.0
 40
50.0
  1
KCセット桝
  7
Annotative
 72
     1
 11
3500.0
 21
689.9999999999988
 31
0.0
100
AcDbText
 73
     2
1001
AcadAnnotative
1000
AnnotativeData
1002
{
1070
     1
1070
     1
1002
}
  0
LINE
  5
19B9
330
1F
100
AcDbEntity
  8
隠れ線
100
AcDbLine
 10
1000.000000000001
 20
3369.999999999999
 30
0.0
 11
1000.000000000001
 21
3319.999999999999
 31
0.0
  0
LINE
  5
19BA
330
1F
100
AcDbEntity
  8
隠れ線
100
AcDbLine
 10
1000.000000000001
 20
3319.999999999999
 30
0.0
 11
1600.000000000001
 21
3319.999999999999
 31
0.0
  0
LINE
  5
19BB
330
1F
100
AcDbEntity
  8
隠れ線
100
AcDbLine
 10
1600.000000000001
 20
3319.999999999999
 30
0.0
 11
1600.000000000001
 21
3369.999999999999
 31
0.0
  0
LINE
  5
19BC
330
1F
100
AcDbEntity
  8
隠れ線
100
AcDbLine
 10
1550.000000000001
 20
3319.999999999999
 30
0.0
 11
1550.000000000001
 21
3269.999999999999
 31
0.0
  0
LINE
  5
19BD
330
1F
100
AcDbEntity
  8
隠れ線
100
AcDbLine
 10
1050.000000000001
 20
2569.999999999999
 30
0.0
 11
1050.0
 21
2669.999999999999
 31
0.0
  0
LINE
  5
19BE
102
{ACAD_REACTORS
330
1BDC
102
}
330
1F
100
AcDbEntity
  8
構造線
100
AcDbLine
 10
908.0000000000008
 20
3369.999999999999
 30
0.0
 11
1692.000000000001
 21
3369.999999999999
 31
0.0
  0
LINE
  5
19BF
330
1F
100
AcDbEntity
  8
構造線
100
AcDbLine
 10
1700.000000000001
 20
3361.999999999999
 30
0.0
 11
1700.000000000001
 21
2569.999999999999
 31
0.0
  0
LINE
  5
19C0
102
{ACAD_REACTORS
330
1D3B
102
}
330
1F
100
AcDbEntity
  8
構造線
100
AcDbLine
 10
1700.000000000001
 20
2569.999999999999
 30
0.0
 11
900.0000000000008
 21
2569.999999999999
 31
0.0
  0
LINE
  5
19C1
102
{ACAD_REACTORS
330
1BDC
330
1D3B
102
}
330
1F
100
AcDbEntity
  8
構造線
100
AcDbLine
 10
900.0000000000008
 20
2569.999999999999
 30
0.0
 11
900.0000000000008
 21
3361.999999999999
 31
0.0
  0
LINE
  5
19C8
330
1F
100
AcDbEntity
  8
隠れ線
100
AcDbLine
 10
900.0000000000008
 20
2639.999999999999
 30
0.0
 11
1000.000000000001
 21
2669.999999999999
 31
0.0
  0
LINE
  5
19C9
330
1F
100
AcDbEntity
  8
構造線
100
AcDbLine
 10
1000.000000000001
 20
2640.0
 30
0.0
 11
1000.000000000001
 21
3279.999999999999
 31
0.0
  0
LINE
  5
19CA
330
1F
100
AcDbEntity
  8
隠れ線
100
AcDbLine
 10
1000.000000000001
 20
3269.999999999999
 30
0.0
 11
900.0000000000008
 21
3279.999999999999
 31
0.0
  0
LINE
  5
19CB
330
1F
100
AcDbEntity
  8
隠れ線
100
AcDbLine
 10
1700.000000000001
 20
2639.999999999999
 30
0.0
 11
1600.000000000001
 21
2669.999999999999
 31
0.0
  0
LINE
  5
19CC
330
1F
100
AcDbEntity
  8
構造線
100
AcDbLine
 10
1600.000000000001
 20
2639.999999999999
 30
0.0
 11
1600.000000000001
 21
3280.0
 31
0.0
  0
LINE
  5
19CD
330
1F
100
AcDbEntity
  8
隠れ線
100
AcDbLine
 10
1600.000000000001
 20
3269.999999999999
 30
0.0
 11
1700.000000000001
 21
3279.999999999999
 31
0.0
  0
LINE
  5
19CE
330
1F
100
AcDbEntity
  8
構造線
100
AcDbLine
 10
2600.000000000001
 20
3369.999999999999
 30
0.0
 11
2600.000000000001
 21
3319.999999999999
 31
0.0
  0
LINE
  5
19CF
330
1F
100
AcDbEntity
  8
構造線
100
AcDbLine
 10
2600.000000000001
 20
3319.999999999999
 30
0.0
 11
3200.000000000001
 21
3319.999999999999
 31
0.0
  0
LINE
  5
19D0
330
1F
100
AcDbEntity
  8
構造線
100
AcDbLine
 10
3200.000000000001
 20
3319.999999999999
 30
0.0
 11
3200.000000000001
 21
3369.999999999999
 31
0.0
  0
LINE
  5
19D1
102
{ACAD_REACTORS
330
1C9E
330
1CB0
102
}
330
1F
100
AcDbEntity
  8
構造線
100
AcDbLine
 10
3150.000000000001
 20
3319.999999999999
 30
0.0
 11
3150.000000000001
 21
2569.999999999999
 31
0.0
  0
LINE
  5
19D2
102
{ACAD_REACTORS
330
1C8C
330
1C9E
102
}
330
1F
100
AcDbEntity
  8
構造線
100
AcDbLine
 10
2650.000000000001
 20
2569.999999999999
 30
0.0
 11
2650.000000000001
 21
3319.999999999999
 31
0.0
  0
LINE
  5
19D3
330
1F
100
AcDbEntity
  8
構造線
100
AcDbLine
 10
2508.000000000001
 20
3369.999999999999
 30
0.0
 11
3292.000000000001
 21
3369.999999999999
 31
0.0
  0
LINE
  5
19D4
330
1F
100
AcDbEntity
  8
構造線
100
AcDbLine
 10
3300.000000000001
 20
3361.999999999999
 30
0.0
 11
3300.000000000002
 21
2569.999999999999
 31
0.0
  0
LINE
  5
19D5
102
{ACAD_REACTORS
330
1C8C
330
1CB0
102
}
330
1F
100
AcDbEntity
  8
構造線
100
AcDbLine
 10
3300.000000000001
 20
2569.999999999999
 30
0.0
 11
2500.000000000001
 21
2569.999999999999
 31
0.0
  0
LINE
  5
19D6
102
{ACAD_REACTORS
330
1C51
102
}
330
1F
100
AcDbEntity
  8
構造線
100
AcDbLine
 10
2500.000000000001
 20
2569.999999999999
 30
0.0
 11
2500.000000000001
 21
3361.999999999999
 31
0.0
  0
LINE
  5
19D8
102
{ACAD_REACTORS
330
1C3F
330
1C51
102
}
330
1F
100
AcDbEntity
  8
構造線
100
AcDbLine
 10
2500.000000000001
 20
2639.999999999999
 30
0.0
 11
2600.000000000001
 21
2669.999999999999
 31
0.0
  0
LINE
  5
19D9
102
{ACAD_REACTORS
330
1C2B
330
1D17
102
}
330
1F
100
AcDbEntity
  8
構造線
100
AcDbLine
 10
2600.000000000001
 20
2669.999999999999
 30
0.0
 11
2600.000000000001
 21
3269.999999999999
 31
0.0
  0
LINE
  5
19DA
102
{ACAD_REACTORS
330
1BEF
330
1C03
102
}
330
1F
100
AcDbEntity
  8
構造線
100
AcDbLine
 10
2600.000000000001
 20
3269.999999999999
 30
0.0
 11
2500.000000000001
 21
3279.999999999999
 31
0.0
  0
LINE
  5
19DB
330
1F
100
AcDbEntity
  8
構造線
100
AcDbLine
 10
3300.000000000001
 20
2639.999999999999
 30
0.0
 11
3200.000000000001
 21
2669.999999999999
 31
0.0
  0
LINE
  5
19DC
330
1F
100
AcDbEntity
  8
構造線
100
AcDbLine
 10
3200.000000000001
 20
2669.999999999998
 30
0.0
 11
3200.000000000001
 21
3269.999999999999
 31
0.0
  0
LINE
  5
19DD
330
1F
100
AcDbEntity
  8
構造線
100
AcDbLine
 10
3200.000000000001
 20
3269.999999999999
 30
0.0
 11
3300.000000000001
 21
3279.999999999999
 31
0.0
  0
LINE
  5
19DE
330
1F
100
AcDbEntity
  8
構造線
100
AcDbLine
 10
1000.000000000001
 20
3279.999999999999
 30
0.0
 11
1600.000000000001
 21
3280.0
 31
0.0
  0
LINE
  5
19E1
330
1F
100
AcDbEntity
  8
構造線
100
AcDbLine
 10
1000.000000000001
 20
2639.999999999999
 30
0.0
 11
1600.000000000001
 21
2640.0
 31
0.0
  0
LINE
  5
19E2
330
1F
100
AcDbEntity
  8
隠れ線
100
AcDbLine
 10
1050.0
 20
3269.999999999999
 30
0.0
 11
1050.000000000001
 21
3319.999999999999
 31
0.0
  0
LINE
  5
19E3
330
1F
100
AcDbEntity
  8
隠れ線
100
AcDbLine
 10
1550.000000000001
 20
2669.999999999999
 30
0.0
 11
1550.0
 21
2569.999999999999
 31
0.0
  0
LINE
  5
19E4
330
1F
100
AcDbEntity
  8
構造線
100
AcDbLine
 10
1050.0
 20
3269.999999999999
 30
0.0
 11
1050.0
 21
2669.999999999999
 31
0.0
  0
LINE
  5
19E5
330
1F
100
AcDbEntity
  8
構造線
100
AcDbLine
 10
1550.000000000001
 20
3269.999999999999
 30
0.0
 11
1550.000000000001
 21
2669.999999999999
 31
0.0
  0
LINE
  5
19E6
330
1F
100
AcDbEntity
  8
構造線
100
AcDbLine
 10
1000.000000000001
 20
2639.999999999999
 30
0.0
 11
1050.0
 21
2669.999999999999
 31
0.0
  0
LINE
  5
19E7
330
1F
100
AcDbEntity
  8
構造線
100
AcDbLine
 10
1050.0
 20
2669.999999999999
 30
0.0
 11
1550.000000000001
 21
2669.999999999999
 31
0.0
  0
LINE
  5
19E8
330
1F
100
AcDbEntity
  8
構造線
100
AcDbLine
 10
1550.000000000001
 20
2669.999999999999
 30
0.0
 11
1600.000000000001
 21
2639.999999999999
 31
0.0
  0
LINE
  5
19E9
330
1F
100
AcDbEntity
  8
構造線
100
AcDbLine
 10
1000.000000000001
 20
3279.999999999999
 30
0.0
 11
1050.0
 21
3269.999999999999
 31
0.0
  0
LINE
  5
19EA
330
1F
100
AcDbEntity
  8
構造線
100
AcDbLine
 10
1050.0
 20
3269.999999999999
 30
0.0
 11
1550.000000000001
 21
3269.999999999999
 31
0.0
  0
LINE
  5
19EB
330
1F
100
AcDbEntity
  8
構造線
100
AcDbLine
 10
1550.000000000001
 20
3269.999999999999
 30
0.0
 11
1600.000000000001
 21
3280.0
 31
0.0
  0
LINE
  5
19EC
330
1F
100
AcDbEntity
  8
構造線
100
AcDbLine
 10
900.0000000000008
 20
4169.999999999999
 30
0.0
 11
1700.000000000001
 21
4169.999999999999
 31
0.0
  0
LINE
  5
19ED
330
1F
100
AcDbEntity
  8
構造線
100
AcDbLine
 10
900.0000000000008
 20
4969.999999999998
 30
0.0
 11
1700.000000000001
 21
4969.999999999998
 31
0.0
  0
LINE
  5
19EE
102
{ACAD_REACTORS
330
1A88
330
1AC2
330
1AF8
102
}
330
1F
100
AcDbEntity
  8
構造線
100
AcDbLine
 10
900.0000000000008
 20
4169.999999999999
 30
0.0
 11
900.0000000000008
 21
4969.999999999998
 31
0.0
  0
LINE
  5
19EF
330
1F
100
AcDbEntity
  8
構造線
100
AcDbLine
 10
1700.000000000001
 20
4169.999999999999
 30
0.0
 11
1700.000000000001
 21
4969.999999999998
 31
0.0
  0
LINE
  5
19F0
330
1F
100
AcDbEntity
  8
構造線
100
AcDbLine
 10
1050.0
 20
4319.999999999998
 30
0.0
 11
1550.000000000001
 21
4319.999999999999
 31
0.0
  0
LINE
  5
19F1
102
{ACAD_REACTORS
330
1A48
330
1A64
330
1A76
330
1AC2
330
1AD4
102
}
330
1F
100
AcDbEntity
  8
構造線
100
AcDbLine
 10
1050.000000000001
 20
4319.999999999998
 30
0.0
 11
1050.000000000001
 21
4819.999999999999
 31
0.0
  0
LINE
  5
19F2
330
1F
100
AcDbEntity
  8
構造線
100
AcDbLine
 10
1050.000000000001
 20
4819.999999999998
 30
0.0
 11
1550.000000000001
 21
4819.999999999998
 31
0.0
  0
LINE
  5
19F3
102
{ACAD_REACTORS
330
1AD4
330
1AE6
102
}
330
1F
100
AcDbEntity
  8
構造線
100
AcDbLine
 10
1550.000000000001
 20
4319.999999999998
 30
0.0
 11
1550.000000000001
 21
4819.999999999998
 31
0.0
  0
LINE
  5
19F4
330
1F
100
AcDbEntity
  8
構造線
100
AcDbLine
 10
1000.000000000001
 20
4269.999999999998
 30
0.0
 11
1600.000000000001
 21
4269.999999999998
 31
0.0
  0
LINE
  5
19F5
330
1F
100
AcDbEntity
  8
構造線
100
AcDbLine
 10
1000.000000000001
 20
4269.999999999998
 30
0.0
 11
1000.000000000001
 21
4869.999999999999
 31
0.0
  0
LINE
  5
19F6
330
1F
100
AcDbEntity
  8
構造線
100
AcDbLine
 10
1600.0
 20
4269.999999999998
 30
0.0
 11
1600.000000000001
 21
4869.999999999998
 31
0.0
  0
LINE
  5
19F7
330
1F
100
AcDbEntity
  8
構造線
100
AcDbLine
 10
1000.000000000001
 20
4869.999999999998
 30
0.0
 11
1600.000000000001
 21
4869.999999999998
 31
0.0
  0
LINE
  5
19FE
330
1F
100
AcDbEntity
  8
隠れ線
100
AcDbLine
 10
1000.000000000001
 20
4169.999999999999
 30
0.0
 11
1050.0
 21
4269.999999999998
 31
0.0
  0
LINE
  5
19FF
330
1F
100
AcDbEntity
  8
隠れ線
100
AcDbLine
 10
1600.000000000001
 20
4169.999999999999
 30
0.0
 11
1550.000000000001
 21
4269.999999999998
 31
0.0
  0
LINE
  5
1A00
330
1F
100
AcDbEntity
  8
隠れ線
100
AcDbLine
 10
1700.000000000001
 20
4269.999999999998
 30
0.0
 11
1600.000000000001
 21
4319.999999999999
 31
0.0
  0
LINE
  5
1A01
330
1F
100
AcDbEntity
  8
隠れ線
100
AcDbLine
 10
1700.000000000001
 20
4869.999999999999
 30
0.0
 11
1600.000000000002
 21
4819.999999999999
 31
0.0
  0
LINE
  5
1A02
330
1F
100
AcDbEntity
  8
隠れ線
100
AcDbLine
 10
900.0000000000008
 20
4269.999999999998
 30
0.0
 11
1000.0
 21
4319.999999999999
 31
0.0
  0
LINE
  5
1A03
330
1F
100
AcDbEntity
  8
隠れ線
100
AcDbLine
 10
900.0000000000008
 20
4869.999999999999
 30
0.0
 11
1000.0
 21
4819.999999999999
 31
0.0
  0
LINE
  5
1A04
330
1F
100
AcDbEntity
  8
隠れ線
100
AcDbLine
 10
1000.000000000001
 20
4969.999999999998
 30
0.0
 11
1050.000000000001
 21
4870.0
 31
0.0
  0
LINE
  5
1A05
330
1F
100
AcDbEntity
  8
隠れ線
100
AcDbLine
 10
1600.000000000001
 20
4969.999999999998
 30
0.0
 11
1550.000000000001
 21
4870.0
 31
0.0
  0
LINE
  5
1A06
330
1F
100
AcDbEntity
  8
構造線
100
AcDbLine
 10
900.0000000000008
 20
3361.999999999999
 30
0.0
 11
908.0000000000008
 21
3369.999999999999
 31
0.0
  0
LINE
  5
1A07
330
1F
100
AcDbEntity
  8
構造線
100
AcDbLine
 10
1692.000000000001
 20
3369.999999999999
 30
0.0
 11
1700.000000000001
 21
3361.999999999999
 31
0.0
  0
LINE
  5
1A08
102
{ACAD_REACTORS
330
1BEF
102
}
330
1F
100
AcDbEntity
  8
構造線
100
AcDbLine
 10
2500.000000000001
 20
3361.999999999999
 30
0.0
 11
2508.000000000001
 21
3369.999999999999
 31
0.0
  0
LINE
  5
1A09
330
1F
100
AcDbEntity
  8
構造線
100
AcDbLine
 10
3292.000000000001
 20
3369.999999999999
 30
0.0
 11
3300.000000000001
 21
3361.999999999999
 31
0.0
  0
LINE
  5
1A0A
330
1F
100
AcDbEntity
  8
構造線
100
AcDbLine
 10
908.000000000001
 20
4177.999999999999
 30
0.0
 11
1692.000000000001
 21
4177.999999999998
 31
0.0
  0
LINE
  5
1A0B
330
1F
100
AcDbEntity
  8
構造線
100
AcDbLine
 10
908.0000000000008
 20
4177.999999999998
 30
0.0
 11
908.0000000000008
 21
4961.999999999999
 31
0.0
  0
LINE
  5
1A0C
330
1F
100
AcDbEntity
  8
構造線
100
AcDbLine
 10
1692.000000000001
 20
4177.999999999998
 30
0.0
 11
1692.000000000001
 21
4961.999999999999
 31
0.0
  0
LINE
  5
1A0D
330
1F
100
AcDbEntity
  8
構造線
100
AcDbLine
 10
908.000000000001
 20
4961.999999999999
 30
0.0
 11
1692.000000000001
 21
4961.999999999999
 31
0.0
  0
LINE
  5
1A0E
102
{ACAD_REACTORS
330
1A48
102
}
330
1F
100
AcDbEntity
  8
構造線
100
AcDbLine
 10
900.0000000000008
 20
4969.999999999998
 30
0.0
 11
908.0000000000008
 21
4961.999999999999
 31
0.0
  0
LINE
  5
1A0F
102
{ACAD_REACTORS
330
1AE6
330
1AF8
102
}
330
1F
100
AcDbEntity
  8
構造線
100
AcDbLine
 10
1700.000000000001
 20
4969.999999999998
 30
0.0
 11
1692.000000000001
 21
4961.999999999999
 31
0.0
  0
LINE
  5
1A10
330
1F
100
AcDbEntity
  8
構造線
100
AcDbLine
 10
1692.000000000001
 20
4177.999999999999
 30
0.0
 11
1700.000000000001
 21
4169.999999999999
 31
0.0
  0
LINE
  5
1A11
102
{ACAD_REACTORS
330
1A76
330
1A88
102
}
330
1F
100
AcDbEntity
  8
構造線
100
AcDbLine
 10
900.0000000000008
 20
4169.999999999999
 30
0.0
 11
908.0000000000008
 21
4177.999999999999
 31
0.0
  0
LINE
  5
1A15
330
1F
100
AcDbEntity
  8
構造線
100
AcDbLine
 10
1700.000000000001
 20
1769.999999999999
 30
0.0
 11
900.0000000000008
 21
1769.999999999999
 31
0.0
  0
LINE
  5
1A16
102
{ACAD_REACTORS
330
1D4E
330
1DA3
102
}
330
1F
100
AcDbEntity
  8
構造線
100
AcDbLine
 10
900.0000000000008
 20
969.999999999999
 30
0.0
 11
1700.000000000001
 21
969.999999999999
 31
0.0
  0
LINE
  5
1A18
330
1F
100
AcDbEntity
  8
構造線
100
AcDbLine
 10
1050.0
 20
1119.999999999998
 30
0.0
 11
1550.000000000001
 21
1119.999999999999
 31
0.0
  0
LINE
  5
1A19
102
{ACAD_REACTORS
330
1BBA
330
1D7D
102
}
330
1F
100
AcDbEntity
  8
構造線
100
AcDbLine
 10
1050.000000000001
 20
1069.999999999999
 30
0.0
 11
1550.000000000001
 21
1069.999999999998
 31
0.0
  0
LINE
  5
1A1C
330
1F
100
AcDbEntity
  8
構造線
100
AcDbLine
 10
1050.000000000001
 20
1619.999999999998
 30
0.0
 11
1550.000000000001
 21
1619.999999999998
 31
0.0
  0
LINE
  5
1A1D
330
1F
100
AcDbEntity
  8
構造線
100
AcDbLine
 10
1050.000000000002
 20
1669.999999999998
 30
0.0
 11
1550.0
 21
1669.999999999998
 31
0.0
  0
LINE
  5
1A1E
102
{ACAD_REACTORS
330
1B0A
330
1B6C
102
}
330
1F
100
AcDbEntity
  8
構造線
100
AcDbLine
 10
900.0000000000008
 20
969.999999999999
 30
0.0
 11
900.0000000000008
 21
1769.999999999999
 31
0.0
  0
LINE
  5
1A20
330
1F
100
AcDbEntity
  8
構造線
100
AcDbLine
 10
1050.000000000001
 20
1119.999999999998
 30
0.0
 11
1050.000000000001
 21
1619.999999999999
 31
0.0
  0
LINE
  5
1A21
102
{ACAD_REACTORS
330
1B46
330
1B94
102
}
330
1F
100
AcDbEntity
  8
構造線
100
AcDbLine
 10
1000.000000000001
 20
1119.999999999999
 30
0.0
 11
1000.000000000001
 21
1619.999999999998
 31
0.0
  0
LINE
  5
1A22
330
1F
100
AcDbEntity
  8
構造線
100
AcDbLine
 10
1700.000000000001
 20
969.999999999999
 30
0.0
 11
1700.000000000001
 21
1769.999999999999
 31
0.0
  0
LINE
  5
1A24
330
1F
100
AcDbEntity
  8
構造線
100
AcDbLine
 10
1550.000000000001
 20
1119.999999999998
 30
0.0
 11
1550.000000000001
 21
1619.999999999998
 31
0.0
  0
LINE
  5
1A25
330
1F
100
AcDbEntity
  8
構造線
100
AcDbLine
 10
1600.0
 20
1119.999999999999
 30
0.0
 11
1600.0
 21
1619.999999999998
 31
0.0
  0
LINE
  5
1A26
102
{ACAD_REACTORS
330
1D4E
330
1D6B
102
}
330
1F
100
AcDbEntity
  8
構造線
100
AcDbLine
 10
1000.000000000001
 20
969.999999999999
 30
0.0
 11
1050.000000000001
 21
1069.999999999999
 31
0.0
  0
LINE
  5
1A27
102
{ACAD_REACTORS
330
1D91
330
1DA3
102
}
330
1F
100
AcDbEntity
  8
構造線
100
AcDbLine
 10
1600.000000000001
 20
969.999999999999
 30
0.0
 11
1550.000000000001
 21
1069.999999999998
 31
0.0
  0
LINE
  5
1A28
330
1F
100
AcDbEntity
  8
構造線
100
AcDbLine
 10
1700.000000000001
 20
1069.999999999999
 30
0.0
 11
1600.0
 21
1119.999999999999
 31
0.0
  0
LINE
  5
1A29
330
1F
100
AcDbEntity
  8
構造線
100
AcDbLine
 10
1700.000000000001
 20
1669.999999999999
 30
0.0
 11
1600.0
 21
1619.999999999998
 31
0.0
  0
LINE
  5
1A2A
102
{ACAD_REACTORS
330
1B5A
330
1B6C
102
}
330
1F
100
AcDbEntity
  8
構造線
100
AcDbLine
 10
900.0000000000008
 20
1069.999999999999
 30
0.0
 11
1000.000000000001
 21
1119.999999999999
 31
0.0
  0
LINE
  5
1A2B
102
{ACAD_REACTORS
330
1B0A
330
1B1E
102
}
330
1F
100
AcDbEntity
  8
構造線
100
AcDbLine
 10
900.0000000000008
 20
1669.999999999999
 30
0.0
 11
1000.000000000001
 21
1619.999999999998
 31
0.0
  0
LINE
  5
1A2C
330
1F
100
AcDbEntity
  8
構造線
100
AcDbLine
 10
1000.000000000001
 20
1769.999999999999
 30
0.0
 11
1050.000000000002
 21
1669.999999999998
 31
0.0
  0
LINE
  5
1A2D
330
1F
100
AcDbEntity
  8
構造線
100
AcDbLine
 10
1600.000000000001
 20
1769.999999999999
 30
0.0
 11
1550.0
 21
1669.999999999998
 31
0.0
  0
DIMENSION
  5
1A37
102
{ACAD_XDICTIONARY
360
1A38
102
}
102
{ACAD_REACTORS
330
1A48
102
}
330
1F
100
AcDbEntity
  8
寸法線
100
AcDbDimension
280
     0
  2
*D1
 10
740.0000000000009
 20
4969.999999999998
 30
0.0
 11
710.0000000000001
 21
4894.999999999999
 31
0.0
 70
    32
 71
     5
 42
150.0
 73
     0
 74
     0
 75
     0
  3
Annotative
100
AcDbAlignedDimension
 13
1050.000000000001
 23
4819.999999999999
 33
0.0
 14
900.0000000000008
 24
4969.999999999998
 34
0.0
 50
90.0
100
AcDbRotatedDimension
1001
AcadAnnotative
1000
AnnotativeData
1002
{
1070
     1
1070
     1
1002
}
  0
DIMENSION
  5
1A53
102
{ACAD_XDICTIONARY
360
1A54
102
}
102
{ACAD_REACTORS
330
1A64
102
}
330
1F
100
AcDbEntity
  8
寸法線
100
AcDbDimension
280
     0
  2
*D2
 10
740.0000000000009
 20
4319.999999999998
 30
0.0
 11
710.0000000000002
 21
4569.999999999998
 31
0.0
 70
    32
 71
     5
 42
500.0000000000008
 73
     0
 74
     0
 75
     0
  3
Annotative
100
AcDbAlignedDimension
 13
1050.000000000001
 23
4819.999999999999
 33
0.0
 14
1050.000000000001
 24
4319.999999999998
 34
0.0
 50
90.0
100
AcDbRotatedDimension
1001
AcadAnnotative
1000
AnnotativeData
1002
{
1070
     1
1070
     1
1002
}
  0
DIMENSION
  5
1A65
102
{ACAD_XDICTIONARY
360
1A66
102
}
102
{ACAD_REACTORS
330
1A76
102
}
330
1F
100
AcDbEntity
  8
寸法線
100
AcDbDimension
280
     0
  2
*D3
 10
740.0000000000009
 20
4169.999999999999
 30
0.0
 11
710.0000000000002
 21
4244.999999999998
 31
0.0
 70
    32
 71
     5
 42
149.9999999999991
 73
     0
 74
     0
 75
     0
  3
Annotative
100
AcDbAlignedDimension
 13
1050.000000000001
 23
4319.999999999998
 33
0.0
 14
900.0000000000008
 24
4169.999999999999
 34
0.0
 50
90.0
100
AcDbRotatedDimension
1001
AcadAnnotative
1000
AnnotativeData
1002
{
1070
     1
1070
     1
1002
}
  0
DIMENSION
  5
1A77
102
{ACAD_XDICTIONARY
360
1A78
102
}
102
{ACAD_REACTORS
330
1A88
102
}
330
1F
100
AcDbEntity
  8
寸法線
100
AcDbDimension
280
     0
  2
*D4
 10
580.0000000000009
 20
4969.999999999998
 30
0.0
 11
550.0
 21
4569.999999999999
 31
0.0
 70
    32
 71
     5
 42
800.0
 73
     0
 74
     0
 75
     0
  3
Annotative
100
AcDbAlignedDimension
 13
900.0000000000008
 23
4169.999999999999
 33
0.0
 14
900.0000000000008
 24
4969.999999999998
 34
0.0
 50
90.0
100
AcDbRotatedDimension
1001
AcadAnnotative
1000
AnnotativeData
1002
{
1070
     1
1070
     1
1002
}
  0
DIMENSION
  5
1AB1
102
{ACAD_XDICTIONARY
360
1AB2
102
}
102
{ACAD_REACTORS
330
1AC2
102
}
330
1F
100
AcDbEntity
  8
寸法線
100
AcDbDimension
280
     0
  2
*D5
 10
900.0000000000008
 20
5129.999999999999
 30
0.0
 11
975.0000000000008
 21
5160.0
 31
0.0
 70
    32
 71
     5
 42
150.0
 73
     0
 74
     0
 75
     0
  3
Annotative
100
AcDbAlignedDimension
 13
1050.000000000001
 23
4819.999999999999
 33
0.0
 14
900.0000000000008
 24
4969.999999999998
 34
0.0
100
AcDbRotatedDimension
1001
AcadAnnotative
1000
AnnotativeData
1002
{
1070
     1
1070
     1
1002
}
  0
DIMENSION
  5
1AC3
102
{ACAD_XDICTIONARY
360
1AC4
102
}
102
{ACAD_REACTORS
330
1AD4
102
}
330
1F
100
AcDbEntity
  8
寸法線
100
AcDbDimension
280
     0
  2
*D6
 10
1550.000000000001
 20
5129.999999999999
 30
0.0
 11
1300.000000000001
 21
5160.0
 31
0.0
 70
    32
 71
     5
 42
500.0
 73
     0
 74
     0
 75
     0
  3
Annotative
100
AcDbAlignedDimension
 13
1050.000000000001
 23
4819.999999999999
 33
0.0
 14
1550.000000000001
 24
4819.999999999998
 34
0.0
100
AcDbRotatedDimension
1001
AcadAnnotative
1000
AnnotativeData
1002
{
1070
     1
1070
     1
1002
}
  0
DIMENSION
  5
1AD5
102
{ACAD_XDICTIONARY
360
1AD6
102
}
102
{ACAD_REACTORS
330
1AE6
102
}
330
1F
100
AcDbEntity
  8
寸法線
100
AcDbDimension
280
     0
  2
*D7
 10
1700.000000000001
 20
5129.999999999999
 30
0.0
 11
1625.000000000001
 21
5160.0
 31
0.0
 70
    32
 71
     5
 42
150.0
 73
     0
 74
     0
 75
     0
  3
Annotative
100
AcDbAlignedDimension
 13
1550.000000000001
 23
4819.999999999998
 33
0.0
 14
1700.000000000001
 24
4969.999999999998
 34
0.0
100
AcDbRotatedDimension
1001
AcadAnnotative
1000
AnnotativeData
1002
{
1070
     1
1070
     1
1002
}
  0
DIMENSION
  5
1AE7
102
{ACAD_XDICTIONARY
360
1AE8
102
}
102
{ACAD_REACTORS
330
1AF8
102
}
330
1F
100
AcDbEntity
  8
寸法線
100
AcDbDimension
280
     0
  2
*D8
 10
900.0000000000008
 20
5289.999999999999
 30
0.0
 11
1300.000000000001
 21
5319.999999999999
 31
0.0
 70
    32
 71
     5
 42
800.0
 73
     0
 74
     0
 75
     0
  3
Annotative
100
AcDbAlignedDimension
 13
1700.000000000001
 23
4969.999999999998
 33
0.0
 14
900.0000000000008
 24
4969.999999999998
 34
0.0
100
AcDbRotatedDimension
1001
AcadAnnotative
1000
AnnotativeData
1002
{
1070
     1
1070
     1
1002
}
  0
DIMENSION
  5
1AF9
102
{ACAD_XDICTIONARY
360
1AFA
102
}
102
{ACAD_REACTORS
330
1B0A
102
}
330
1F
100
AcDbEntity
  8
寸法線
100
AcDbDimension
280
     0
  2
*D9
 10
740.0000000000004
 20
1769.999999999999
 30
0.0
 11
710.0000000000002
 21
1719.999999999999
 31
0.0
 70
    32
 71
     5
 42
100.0
 73
     0
 74
     0
 75
     0
  3
Annotative
100
AcDbAlignedDimension
 13
900.0000000000008
 23
1669.999999999999
 33
0.0
 14
900.0000000000008
 24
1769.999999999999
 34
0.0
 50
90.0
100
AcDbRotatedDimension
1001
AcadAnnotative
1000
AnnotativeData
1002
{
1070
     1
1070
     1
1002
}
  0
DIMENSION
  5
1B0B
102
{ACAD_XDICTIONARY
360
1B0C
102
}
102
{ACAD_REACTORS
330
1B1E
102
}
330
1F
100
AcDbEntity
  8
寸法線
100
AcDbDimension
280
     0
  2
*D10
 10
740.0000000000004
 20
1669.999999999999
 30
0.0
 11
667.8083464804513
 21
1644.999999999999
 31
0.0
 70
   160
 71
     5
 42
50.00000000000046
 73
     0
 74
     0
 75
     0
  3
Annotative
100
AcDbAlignedDimension
 13
1000.000000000001
 23
1619.999999999998
 33
0.0
 14
900.0000000000008
 24
1669.999999999999
 34
0.0
 50
90.0
100
AcDbRotatedDimension
1001
AcadAnnotative
1000
AnnotativeData
1002
{
1070
     1
1070
     1
1002
}
1001
ACAD
1000
DSTYLE
1002
{
1070
   279
1070
     2
1002
}
  0
DIMENSION
  5
1B35
102
{ACAD_XDICTIONARY
360
1B36
102
}
102
{ACAD_REACTORS
330
1B46
102
}
330
1F
100
AcDbEntity
  8
寸法線
100
AcDbDimension
280
     0
  2
*D11
 10
740.0000000000003
 20
1119.999999999999
 30
0.0
 11
710.0000000000002
 21
1369.999999999999
 31
0.0
 70
    32
 71
     5
 42
499.9999999999991
 73
     0
 74
     0
 75
     0
  3
Annotative
100
AcDbAlignedDimension
 13
1000.000000000001
 23
1619.999999999998
 33
0.0
 14
1000.000000000001
 24
1119.999999999999
 34
0.0
 50
90.0
100
AcDbRotatedDimension
1001
AcadAnnotative
1000
AnnotativeData
1002
{
1070
     1
1070
     1
1002
}
  0
DIMENSION
  5
1B47
102
{ACAD_XDICTIONARY
360
1B48
102
}
102
{ACAD_REACTORS
330
1B5A
102
}
330
1F
100
AcDbEntity
  8
寸法線
100
AcDbDimension
280
     0
  2
*D12
 10
740.0000000000003
 20
1069.999999999999
 30
0.0
 11
670.1061935856996
 21
1094.999999999999
 31
0.0
 70
   160
 71
     5
 42
50.00000000000046
 73
     0
 74
     0
 75
     0
  3
Annotative
100
AcDbAlignedDimension
 13
1000.000000000001
 23
1119.999999999999
 33
0.0
 14
900.0000000000008
 24
1069.999999999999
 34
0.0
 50
90.0
100
AcDbRotatedDimension
1001
AcadAnnotative
1000
AnnotativeData
1002
{
1070
     1
1070
     1
1002
}
1001
ACAD
1000
DSTYLE
1002
{
1070
   279
1070
     2
1002
}
  0
DIMENSION
  5
1B5B
102
{ACAD_XDICTIONARY
360
1B5C
102
}
102
{ACAD_REACTORS
330
1B6C
102
}
330
1F
100
AcDbEntity
  8
寸法線
100
AcDbDimension
280
     0
  2
*D13
 10
740.0000000000002
 20
969.9999999999992
 30
0.0
 11
710.0000000000001
 21
1019.999999999999
 31
0.0
 70
    32
 71
     5
 42
100.0
 73
     0
 74
     0
 75
     0
  3
Annotative
100
AcDbAlignedDimension
 13
900.0000000000008
 23
1069.999999999999
 33
0.0
 14
900.0000000000008
 24
969.999999999999
 34
0.0
 50
90.0
100
AcDbRotatedDimension
1001
AcadAnnotative
1000
AnnotativeData
1002
{
1070
     1
1070
     1
1002
}
  0
LINE
  5
1B84
102
{ACAD_REACTORS
330
1B94
330
1BA6
102
}
330
1F
100
AcDbEntity
  8
寸法線
100
AcDbLine
 10
1050.000000000001
 20
1369.999999999999
 30
0.0
 11
900.0000000000008
 21
1369.999999999999
 31
0.0
  0
DIMENSION
  5
1B85
102
{ACAD_XDICTIONARY
360
1B86
102
}
102
{ACAD_REACTORS
330
1B94
102
}
330
1F
100
AcDbEntity
  8
寸法線
100
AcDbDimension
280
     0
  2
*D14
 10
900.0000000000008
 20
1369.999999999999
 30
0.0
 11
950.0000000000008
 21
1399.999999999999
 31
0.0
 70
    32
 71
     5
 42
100.0
 73
     0
 74
     0
 75
     0
  3
Annotative
100
AcDbAlignedDimension
 13
1000.000000000001
 23
1369.999999999999
 33
0.0
 14
900.0000000000008
 24
1369.999999999999
 34
0.0
100
AcDbRotatedDimension
1001
AcadAnnotative
1000
AnnotativeData
1002
{
1070
     1
1070
     1
1002
}
  0
DIMENSION
  5
1B95
102
{ACAD_XDICTIONARY
360
1B96
102
}
102
{ACAD_REACTORS
330
1BA6
102
}
330
1F
100
AcDbEntity
  8
寸法線
100
AcDbDimension
280
     0
  2
*D15
 10
1050.000000000001
 20
1369.999999999999
 30
0.0
 11
1126.192893401016
 21
1399.999999999999
 31
0.0
 70
    32
 71
     5
 42
50.0
 73
     0
 74
     0
 75
     0
  3
Annotative
100
AcDbAlignedDimension
 13
1000.000000000001
 23
1369.999999999999
 33
0.0
 14
1050.000000000001
 24
1369.999999999999
 34
0.0
100
AcDbRotatedDimension
1001
AcadAnnotative
1000
AnnotativeData
1002
{
1070
     1
1070
     1
1002
}
  0
LINE
  5
1BA7
102
{ACAD_REACTORS
330
1BBA
330
1BCA
102
}
330
1F
100
AcDbEntity
  8
寸法線
100
AcDbLine
 10
1300.000000000001
 20
1119.999999999999
 30
0.0
 11
1300.000000000001
 21
969.999999999999
 31
0.0
  0
DIMENSION
  5
1BA9
102
{ACAD_XDICTIONARY
360
1BAA
102
}
102
{ACAD_REACTORS
330
1BBA
102
}
330
1F
100
AcDbEntity
  8
寸法線
100
AcDbDimension
280
     0
  2
*D16
 10
1300.000000000001
 20
1119.999999999999
 30
0.0
 11
1270.0
 21
1196.192893401014
 31
0.0
 70
    32
 71
     5
 42
50.00000000000023
 73
     0
 74
     0
 75
     0
  3
Annotative
100
AcDbAlignedDimension
 13
1300.000000000001
 23
1069.999999999998
 33
0.0
 14
1300.000000000001
 24
1119.999999999999
 34
0.0
 50
90.0
100
AcDbRotatedDimension
1001
AcadAnnotative
1000
AnnotativeData
1002
{
1070
     1
1070
     1
1002
}
  0
DIMENSION
  5
1BBB
102
{ACAD_XDICTIONARY
360
1BBC
102
}
102
{ACAD_REACTORS
330
1BCA
102
}
330
1F
100
AcDbEntity
  8
寸法線
100
AcDbDimension
280
     0
  2
*D17
 10
1300.000000000001
 20
969.999999999999
 30
0.0
 11
1270.0
 21
1019.999999999999
 31
0.0
 70
    32
 71
     5
 42
99.99999999999943
 73
     0
 74
     0
 75
     0
  3
Annotative
100
AcDbAlignedDimension
 13
1300.000000000001
 23
1069.999999999998
 33
0.0
 14
1300.000000000001
 24
969.999999999999
 34
0.0
 50
90.0
100
AcDbRotatedDimension
1001
AcadAnnotative
1000
AnnotativeData
1002
{
1070
     1
1070
     1
1002
}
  0
DIMENSION
  5
1BCB
102
{ACAD_XDICTIONARY
360
1BCC
102
}
102
{ACAD_REACTORS
330
1BDC
102
}
330
1F
100
AcDbEntity
  8
寸法線
100
AcDbDimension
280
     0
  2
*D18
 10
580.0000000000006
 20
3369.999999999999
 30
0.0
 11
550.0
 21
2969.999999999999
 31
0.0
 70
    32
 71
     5
 42
800.0
 73
     0
 74
     0
 75
     0
  3
Annotative
100
AcDbAlignedDimension
 13
900.0000000000008
 23
2569.999999999999
 33
0.0
 14
908.0000000000008
 24
3369.999999999999
 34
0.0
 50
90.0
100
AcDbRotatedDimension
1001
AcadAnnotative
1000
AnnotativeData
1002
{
1070
     1
1070
     1
1002
}
  0
DIMENSION
  5
1BDE
102
{ACAD_XDICTIONARY
360
1BDF
102
}
102
{ACAD_REACTORS
330
1BEF
102
}
330
1F
100
AcDbEntity
  8
寸法線
100
AcDbDimension
280
     0
  2
*D19
 10
2340.000000000001
 20
3369.999999999999
 30
0.0
 11
2310.0
 21
3324.999999999999
 31
0.0
 70
    32
 71
     5
 42
90.0
 73
     0
 74
     0
 75
     0
  3
Annotative
100
AcDbAlignedDimension
 13
2500.000000000001
 23
3279.999999999999
 33
0.0
 14
2508.000000000001
 24
3369.999999999999
 34
0.0
 50
90.0
100
AcDbRotatedDimension
1001
AcadAnnotative
1000
AnnotativeData
1002
{
1070
     1
1070
     1
1002
}
  0
DIMENSION
  5
1BF0
102
{ACAD_XDICTIONARY
360
1BF1
102
}
102
{ACAD_REACTORS
330
1C03
102
}
330
1F
100
AcDbEntity
  8
寸法線
100
AcDbDimension
280
     0
  2
*D20
 10
2340.000000000001
 20
3269.999999999999
 30
0.0
 11
2268.01442569436
 21
3274.999999999999
 31
0.0
 70
   160
 71
     5
 42
10.0
 73
     0
 74
     0
 75
     0
  3
Annotative
100
AcDbAlignedDimension
 13
2500.000000000001
 23
3279.999999999999
 33
0.0
 14
2600.000000000001
 24
3269.999999999999
 34
0.0
 50
90.0
100
AcDbRotatedDimension
1001
AcadAnnotative
1000
AnnotativeData
1002
{
1070
     1
1070
     1
1002
}
1001
ACAD
1000
DSTYLE
1002
{
1070
   279
1070
     2
1002
}
  0
DIMENSION
  5
1C1A
102
{ACAD_XDICTIONARY
360
1C1B
102
}
102
{ACAD_REACTORS
330
1C2B
102
}
330
1F
100
AcDbEntity
  8
寸法線
100
AcDbDimension
280
     0
  2
*D21
 10
2340.000000000001
 20
2669.999999999999
 30
0.0
 11
2310.0
 21
2970.0
 31
0.0
 70
    32
 71
     5
 42
600.0
 73
     0
 74
     0
 75
     0
  3
Annotative
100
AcDbAlignedDimension
 13
2600.000000000001
 23
3269.999999999999
 33
0.0
 14
2600.000000000001
 24
2669.999999999999
 34
0.0
 50
90.0
100
AcDbRotatedDimension
1001
AcadAnnotative
1000
AnnotativeData
1002
{
1070
     1
1070
     1
1002
}
  0
DIMENSION
  5
1C2C
102
{ACAD_XDICTIONARY
360
1C2D
102
}
102
{ACAD_REACTORS
330
1C3F
102
}
330
1F
100
AcDbEntity
  8
寸法線
100
AcDbDimension
280
     0
  2
*D22
 10
2340.000000000001
 20
2639.999999999999
 30
0.0
 11
2310.0
 21
2655.0
 31
0.0
 70
    32
 71
     5
 42
30.0
 73
     0
 74
     0
 75
     0
  3
Annotative
100
AcDbAlignedDimension
 13
2600.000000000001
 23
2669.999999999999
 33
0.0
 14
2500.000000000001
 24
2639.999999999999
 34
0.0
 50
90.0
100
AcDbRotatedDimension
1001
AcadAnnotative
1000
AnnotativeData
1002
{
1070
     1
1070
     1
1002
}
  0
DIMENSION
  5
1C40
102
{ACAD_XDICTIONARY
360
1C41
102
}
102
{ACAD_REACTORS
330
1C51
102
}
330
1F
100
AcDbEntity
  8
寸法線
100
AcDbDimension
280
     0
  2
*D23
 10
2340.000000000001
 20
2569.999999999999
 30
0.0
 11
2310.0
 21
2513.807106598985
 31
0.0
 70
    32
 71
     5
 42
70.0
 73
     0
 74
     0
 75
     0
  3
Annotative
100
AcDbAlignedDimension
 13
2500.000000000001
 23
2639.999999999999
 33
0.0
 14
2500.000000000001
 24
2569.999999999999
 34
0.0
 50
90.0
100
AcDbRotatedDimension
1001
AcadAnnotative
1000
AnnotativeData
1002
{
1070
     1
1070
     1
1002
}
  0
DIMENSION
  5
1C7B
102
{ACAD_XDICTIONARY
360
1C7C
102
}
102
{ACAD_REACTORS
330
1C8C
102
}
330
1F
100
AcDbEntity
  8
寸法線
100
AcDbDimension
280
     0
  2
*D24
 10
2500.000000000001
 20
2409.999999999999
 30
0.0
 11
2575.000000000001
 21
2439.999999999999
 31
0.0
 70
    32
 71
     5
 42
150.0
 73
     0
 74
     0
 75
     0
  3
Annotative
100
AcDbAlignedDimension
 13
2650.000000000001
 23
2569.999999999999
 33
0.0
 14
2500.000000000001
 24
2569.999999999999
 34
0.0
100
AcDbRotatedDimension
1001
AcadAnnotative
1000
AnnotativeData
1002
{
1070
     1
1070
     1
1002
}
  0
DIMENSION
  5
1C8D
102
{ACAD_XDICTIONARY
360
1C8E
102
}
102
{ACAD_REACTORS
330
1C9E
102
}
330
1F
100
AcDbEntity
  8
寸法線
100
AcDbDimension
280
     0
  2
*D25
 10
3150.000000000001
 20
2409.999999999999
 30
0.0
 11
2900.000000000001
 21
2439.999999999999
 31
0.0
 70
    32
 71
     5
 42
500.0
 73
     0
 74
     0
 75
     0
  3
Annotative
100
AcDbAlignedDimension
 13
2650.000000000001
 23
2569.999999999999
 33
0.0
 14
3150.000000000001
 24
2569.999999999999
 34
0.0
100
AcDbRotatedDimension
1001
AcadAnnotative
1000
AnnotativeData
1002
{
1070
     1
1070
     1
1002
}
  0
DIMENSION
  5
1C9F
102
{ACAD_XDICTIONARY
360
1CA0
102
}
102
{ACAD_REACTORS
330
1CB0
102
}
330
1F
100
AcDbEntity
  8
寸法線
100
AcDbDimension
280
     0
  2
*D26
 10
3300.000000000001
 20
2409.999999999997
 30
0.0
 11
3225.000000000001
 21
2439.999999999998
 31
0.0
 70
    32
 71
     5
 42
150.0
 73
     0
 74
     0
 75
     0
  3
Annotative
100
AcDbAlignedDimension
 13
3150.000000000001
 23
2569.999999999999
 33
0.0
 14
3300.000000000001
 24
2569.999999999999
 34
0.0
100
AcDbRotatedDimension
1001
AcadAnnotative
1000
AnnotativeData
1002
{
1070
     1
1070
     1
1002
}
  0
LINE
  5
1CB8
330
1F
100
AcDbEntity
  8
配筋線
100
AcDbLine
 10
974.0000000000009
 20
4233.999999999998
 30
0.0
 11
1626.000000000001
 21
4233.999999999998
 31
0.0
  0
LINE
  5
1CB9
330
1F
100
AcDbEntity
  8
配筋線
100
AcDbLine
 10
974.0000000000009
 20
4905.999999999998
 30
0.0
 11
1626.000000000001
 21
4905.999999999998
 31
0.0
  0
LINE
  5
1CBA
330
1F
100
AcDbEntity
  8
配筋線
100
AcDbLine
 10
1636.000000000001
 20
4895.999999999998
 30
0.0
 11
1636.000000000001
 21
4243.999999999998
 31
0.0
  0
LINE
  5
1CBB
330
1F
100
AcDbEntity
  8
配筋線
100
AcDbLine
 10
964.0000000000009
 20
4895.999999999998
 30
0.0
 11
964.0000000000009
 21
4243.999999999998
 31
0.0
  0
ARC
  5
1CBC
330
1F
100
AcDbEntity
  8
配筋線
100
AcDbCircle
 10
974.0000000000009
 20
4895.999999999998
 30
0.0
 40
10.0
100
AcDbArc
 50
90.0
 51
180.0
  0
ARC
  5
1CBD
330
1F
100
AcDbEntity
  8
配筋線
100
AcDbCircle
 10
1626.000000000001
 20
4895.999999999998
 30
0.0
 40
10.0
100
AcDbArc
 50
0.0
 51
90.0
  0
ARC
  5
1CBE
330
1F
100
AcDbEntity
  8
配筋線
100
AcDbCircle
 10
1626.000000000001
 20
4243.999999999998
 30
0.0
 40
10.0
100
AcDbArc
 50
270.0
 51
0.0
  0
ARC
  5
1CBF
330
1F
100
AcDbEntity
  8
配筋線
100
AcDbCircle
 10
974.0000000000009
 20
4243.999999999998
 30
0.0
 40
10.0
100
AcDbArc
 50
180.0
 51
270.0
  0
CIRCLE
  5
1CC1
330
1F
100
AcDbEntity
  8
配筋線
100
AcDbCircle
 10
974.7071067811875
 20
4895.292893218812
 30
0.0
 40
8.0
  0
CIRCLE
  5
1CFA
330
1F
100
AcDbEntity
  8
配筋線
100
AcDbCircle
 10
1625.292893218814
 20
4895.292893218812
 30
0.0
 40
8.0
  0
CIRCLE
  5
1CFB
330
1F
100
AcDbEntity
  8
配筋線
100
AcDbCircle
 10
974.7071067811875
 20
4244.707106781187
 30
0.0
 40
8.0
  0
CIRCLE
  5
1CFC
330
1F
100
AcDbEntity
  8
配筋線
100
AcDbCircle
 10
1625.292893218814
 20
4244.707106781187
 30
0.0
 40
8.0
  0
LINE
  5
1CFD
330
1F
100
AcDbEntity
  8
配筋線
100
AcDbLine
 10
1626.000000000001
 20
3319.999999999999
 30
0.0
 11
1626.000000000001
 21
2619.999999999999
 31
0.0
  0
LINE
  5
1CFE
330
1F
100
AcDbEntity
  8
配筋線
100
AcDbLine
 10
974.7071067811871
 20
3319.999999999999
 30
0.0
 11
974.7071067811875
 21
2619.999999999999
 31
0.0
  0
LINE
  5
1D03
330
1F
100
AcDbEntity
  8
配筋線
100
AcDbLine
 10
964.0000000000009
 20
3289.999999999999
 30
0.0
 11
1636.000000000001
 21
3289.999999999999
 31
0.0
  0
LINE
  5
1D04
330
1F
100
AcDbEntity
  8
配筋線
100
AcDbLine
 10
964.0000000000009
 20
2649.999999999999
 30
0.0
 11
1636.000000000001
 21
2649.999999999999
 31
0.0
  0
LINE
  5
1D07
102
{ACAD_REACTORS
330
1D17
330
1D29
102
}
330
1F
100
AcDbEntity
  8
寸法線
100
AcDbLine
 10
2500.000000000001
 20
2969.999999999999
 30
0.0
 11
2650.000000000001
 21
2969.999999999999
 31
0.0
  0
DIMENSION
  5
1D08
102
{ACAD_XDICTIONARY
360
1D09
102
}
102
{ACAD_REACTORS
330
1D17
102
}
330
1F
100
AcDbEntity
  8
寸法線
100
AcDbDimension
280
     0
  2
*D27
 10
2500.000000000001
 20
2969.999999999999
 30
0.0
 11
2550.000000000001
 21
3000.0
 31
0.0
 70
    32
 71
     5
 42
100.0
 73
     0
 74
     0
 75
     0
  3
Annotative
100
AcDbAlignedDimension
 13
2600.000000000001
 23
2969.999999999999
 33
0.0
 14
2500.000000000001
 24
2969.999999999999
 34
0.0
100
AcDbRotatedDimension
1001
AcadAnnotative
1000
AnnotativeData
1002
{
1070
     1
1070
     1
1002
}
  0
DIMENSION
  5
1D18
102
{ACAD_XDICTIONARY
360
1D19
102
}
102
{ACAD_REACTORS
330
1D29
102
}
330
1F
100
AcDbEntity
  8
寸法線
100
AcDbDimension
280
     0
  2
*D28
 10
2650.000000000001
 20
2969.999999999999
 30
0.0
 11
2726.192893401016
 21
3000.0
 31
0.0
 70
    32
 71
     5
 42
50.0
 73
     0
 74
     0
 75
     0
  3
Annotative
100
AcDbAlignedDimension
 13
2600.000000000001
 23
2969.999999999999
 33
0.0
 14
2650.000000000001
 24
2969.999999999999
 34
0.0
100
AcDbRotatedDimension
1001
AcadAnnotative
1000
AnnotativeData
1002
{
1070
     1
1070
     1
1002
}
  0
DIMENSION
  5
1D2A
102
{ACAD_XDICTIONARY
360
1D2B
102
}
102
{ACAD_REACTORS
330
1D3B
102
}
330
1F
100
AcDbEntity
  8
寸法線
100
AcDbDimension
280
     0
  2
*D29
 10
1700.000000000001
 20
2369.999999999999
 30
0.0
 11
1300.000000000001
 21
2399.999999999999
 31
0.0
 70
    32
 71
     5
 42
800.0000000000001
 73
     0
 74
     0
 75
     0
  3
Annotative
100
AcDbAlignedDimension
 13
900.0000000000008
 23
2569.999999999999
 33
0.0
 14
1700.000000000001
 24
2569.999999999999
 34
0.0
100
AcDbRotatedDimension
1001
AcadAnnotative
1000
AnnotativeData
1002
{
1070
     1
1070
     1
1002
}
  0
DIMENSION
  5
1D3D
102
{ACAD_XDICTIONARY
360
1D3E
102
}
102
{ACAD_REACTORS
330
1D4E
102
}
330
1F
100
AcDbEntity
  8
寸法線
100
AcDbDimension
280
     0
  2
*D30
 10
900.0000000000008
 20
809.9999999999983
 30
0.0
 11
950.0000000000008
 21
839.9999999999984
 31
0.0
 70
    32
 71
     5
 42
100.0
 73
     0
 74
     0
 75
     0
  3
Annotative
100
AcDbAlignedDimension
 13
1000.000000000001
 23
969.999999999999
 33
0.0
 14
900.0000000000008
 24
969.999999999999
 34
0.0
100
AcDbRotatedDimension
1001
AcadAnnotative
1000
AnnotativeData
1002
{
1070
     1
1070
     1
1002
}
  0
DIMENSION
  5
1D58
102
{ACAD_XDICTIONARY
360
1D59
102
}
102
{ACAD_REACTORS
330
1D6B
102
}
330
1F
100
AcDbEntity
  8
寸法線
100
AcDbDimension
280
     0
  2
*D31
 10
1050.000000000001
 20
809.9999999999983
 30
0.0
 11
1025.000000000001
 21
780.3445938805307
 31
0.0
 70
   160
 71
     5
 42
50.0
 73
     0
 74
     0
 75
     0
  3
Annotative
100
AcDbAlignedDimension
 13
1000.000000000001
 23
969.999999999999
 33
0.0
 14
1050.000000000001
 24
1069.999999999999
 34
0.0
100
AcDbRotatedDimension
1001
AcadAnnotative
1000
AnnotativeData
1002
{
1070
     1
1070
     1
1002
}
1001
ACAD
1000
DSTYLE
1002
{
1070
   279
1070
     2
1002
}
  0
DIMENSION
  5
1D6C
102
{ACAD_XDICTIONARY
360
1D6D
102
}
102
{ACAD_REACTORS
330
1D7D
102
}
330
1F
100
AcDbEntity
  8
寸法線
100
AcDbDimension
280
     0
  2
*D32
 10
1550.000000000001
 20
809.9999999999983
 30
0.0
 11
1300.000000000001
 21
839.9999999999984
 31
0.0
 70
    32
 71
     5
 42
500.0000000000004
 73
     0
 74
     0
 75
     0
  3
Annotative
100
AcDbAlignedDimension
 13
1050.000000000001
 23
1069.999999999999
 33
0.0
 14
1550.000000000001
 24
1069.999999999998
 34
0.0
100
AcDbRotatedDimension
1001
AcadAnnotative
1000
AnnotativeData
1002
{
1070
     1
1070
     1
1002
}
  0
DIMENSION
  5
1D7E
102
{ACAD_XDICTIONARY
360
1D7F
102
}
102
{ACAD_REACTORS
330
1D91
102
}
330
1F
100
AcDbEntity
  8
寸法線
100
AcDbDimension
280
     0
  2
*D33
 10
1600.000000000001
 20
809.9999999999983
 30
0.0
 11
1575.000000000001
 21
778.9746195816515
 31
0.0
 70
   160
 71
     5
 42
49.99999999999954
 73
     0
 74
     0
 75
     0
  3
Annotative
100
AcDbAlignedDimension
 13
1550.000000000001
 23
1069.999999999998
 33
0.0
 14
1600.000000000001
 24
969.999999999999
 34
0.0
100
AcDbRotatedDimension
1001
AcadAnnotative
1000
AnnotativeData
1002
{
1070
     1
1070
     1
1002
}
1001
ACAD
1000
DSTYLE
1002
{
1070
   279
1070
     2
1002
}
  0
DIMENSION
  5
1D92
102
{ACAD_XDICTIONARY
360
1D93
102
}
102
{ACAD_REACTORS
330
1DA3
102
}
330
1F
100
AcDbEntity
  8
寸法線
100
AcDbDimension
280
     0
  2
*D34
 10
1700.000000000001
 20
809.9999999999983
 30
0.0
 11
1650.000000000001
 21
839.9999999999984
 31
0.0
 70
    32
 71
     5
 42
100.0
 73
     0
 74
     0
 75
     0
  3
Annotative
100
AcDbAlignedDimension
 13
1600.000000000001
 23
969.999999999999
 33
0.0
 14
1700.000000000001
 24
969.999999999999
 34
0.0
100
AcDbRotatedDimension
1001
AcadAnnotative
1000
AnnotativeData
1002
{
1070
     1
1070
     1
1002
}
  0
LEADER
  5
1FAC
102
{ACAD_XDICTIONARY
360
1FAD
102
}
330
1F
100
AcDbEntity
  8
配筋注釈
100
AcDbLeader
  3
Annotative
 76
     2
 10
1300.000000000001
 20
3289.999999999999
 30
0.0
 10
1300.000000000001
 20
2649.999999999999
 30
0.0
1001
AcadAnnotative
1000
AnnotativeData
1002
{
1070
     1
1070
     1
1002
}
1001
ACAD
1000
DSTYLE
1002
{
1070
    41
1040
1.5
1070
    40
1040
0.0
1070
   147
1040
0.5
1070
    77
1070
     0
1002
}
  0
LEADER
  5
1FB2
102
{ACAD_XDICTIONARY
360
1FB3
102
}
330
1F
100
AcDbEntity
  8
配筋注釈
100
AcDbLeader
  3
Annotative
 76
     2
 10
1300.000000000001
 20
2649.999999999999
 30
0.0
 10
1300.000000000001
 20
2469.999999999999
 30
0.0
1001
AcadAnnotative
1000
AnnotativeData
1002
{
1070
     1
1070
     1
1002
}
1001
ACAD
1000
DSTYLE
1002
{
1070
    41
1040
1.5
1070
    40
1040
0.0
1070
   147
1040
0.5
1070
    77
1070
     0
1002
}
  0
TEXT
  5
1FB8
102
{ACAD_XDICTIONARY
360
1FB9
102
}
330
1F
100
AcDbEntity
  8
配筋注釈
100
AcDbText
 10
1300.000000000001
 20
2477.30964467005
 30
0.0
 40
40.0
  1
 D6-2本
  7
Annotative
 11
1300.000000000001
 21
2469.999999999999
 31
0.0
100
AcDbText
 73
     1
1001
AcadAnnotative
1000
AnnotativeData
1002
{
1070
     1
1070
     1
1002
}
  0
LINE
  5
1FBD
330
1F
100
AcDbEntity
  8
配筋注釈
100
AcDbLine
 10
1300.000000000001
 20
2469.999999999999
 30
0.0
 11
1490.528831459756
 21
2469.999999999999
 31
0.0
  0
LEADER
  5
1FBF
102
{ACAD_XDICTIONARY
360
1FC0
102
}
330
1F
100
AcDbEntity
  8
配筋注釈
100
AcDbLeader
  3
Annotative
 76
     2
 10
974.7071067811869
 20
2889.999999999999
 30
0.0
 10
1626.000000000001
 20
2889.999999999999
 30
0.0
1001
AcadAnnotative
1000
AnnotativeData
1002
{
1070
     1
1070
     1
1002
}
1001
ACAD
1000
DSTYLE
1002
{
1070
    41
1040
1.5
1070
    40
1040
0.0
1070
   147
1040
0.5
1070
    77
1070
     0
1002
}
  0
LEADER
  5
1FC4
102
{ACAD_XDICTIONARY
360
1FC5
102
}
330
1F
100
AcDbEntity
  8
配筋注釈
100
AcDbLeader
  3
Annotative
 76
     2
 10
1626.000000000001
 20
2889.999999999999
 30
0.0
 10
1760.000000000001
 20
2889.999999999999
 30
0.0
1001
AcadAnnotative
1000
AnnotativeData
1002
{
1070
     1
1070
     1
1002
}
1001
ACAD
1000
DSTYLE
1002
{
1070
    41
1040
1.5
1070
    40
1040
0.0
1070
   147
1040
0.5
1070
    77
1070
     0
1002
}
  0
TEXT
  5
1FC9
102
{ACAD_XDICTIONARY
360
1FCA
102
}
330
1F
100
AcDbEntity
  8
配筋注釈
100
AcDbText
 10
1760.000000000001
 20
2897.30964467005
 30
0.0
 40
40.0
  1
 D16-4本
  7
Annotative
 11
1760.000000000001
 21
2889.999999999999
 31
0.0
100
AcDbText
 73
     1
1001
AcadAnnotative
1000
AnnotativeData
1002
{
1070
     1
1070
     1
1002
}
  0
LINE
  5
1FCE
330
1F
100
AcDbEntity
  8
配筋注釈
100
AcDbLine
 10
1760.000000000001
 20
2889.999999999999
 30
0.0
 11
1981.790042420485
 21
2889.999999999999
 31
0.0
  0
LINE
  5
1FD2
330
1F
100
AcDbEntity
  8
中心線
100
AcDbLine
 10
820.0000000000009
 20
4569.999999999999
 30
0.0
 11
1780.000000000001
 21
4569.999999999999
 31
0.0
  0
TEXT
  5
1FDF
102
{ACAD_XDICTIONARY
360
1FE0
102
}
330
1F
100
AcDbEntity
  8
文字
100
AcDbText
 10
802.8426395939096
 20
4429.999999999998
 30
0.0
 40
40.0
  1
A
  7
Annotative
 72
     1
 11
820.0000000000009
 21
4469.999999999998
 31
0.0
100
AcDbText
 73
     3
1001
AcadAnnotative
1000
AnnotativeData
1002
{
1070
     1
1070
     1
1002
}
  0
TEXT
  5
1FE4
102
{ACAD_XDICTIONARY
360
1FE5
102
}
330
1F
100
AcDbEntity
  8
文字
100
AcDbText
 10
1762.84263959391
 20
4429.999999999998
 30
0.0
 40
40.0
  1
A
  7
Annotative
 72
     1
 11
1780.000000000001
 21
4469.999999999998
 31
0.0
100
AcDbText
 73
     3
1001
AcadAnnotative
1000
AnnotativeData
1002
{
1070
     1
1070
     1
1002
}
  0
LINE
  5
1FEC
330
1F
100
AcDbEntity
  8
中心線
100
AcDbLine
 10
820.0000000000006
 20
3009.999999999999
 30
0.0
 11
1780.000000000001
 21
3009.999999999999
 31
0.0
  0
LEADER
  5
1FED
102
{ACAD_XDICTIONARY
360
1FEE
102
}
330
1F
100
AcDbEntity
  8
中心線
100
AcDbLeader
  3
Annotative
 76
     2
 10
820.0000000000006
 20
3009.999999999999
 30
0.0
 10
820.0000000000006
 20
3109.999999999999
 30
0.0
1001
AcadAnnotative
1000
AnnotativeData
1002
{
1070
     1
1070
     1
1002
}
1001
ACAD
1000
DSTYLE
1002
{
1070
    41
1040
2.0
1070
    40
1040
0.0
1070
   147
1040
0.5
1070
    77
1070
     0
1002
}
  0
LEADER
  5
1FF2
102
{ACAD_XDICTIONARY
360
1FF3
102
}
330
1F
100
AcDbEntity
  8
中心線
100
AcDbLeader
  3
Annotative
 76
     2
 10
1780.000000000001
 20
3009.999999999999
 30
0.0
 10
1780.000000000001
 20
3109.999999999999
 30
0.0
1001
AcadAnnotative
1000
AnnotativeData
1002
{
1070
     1
1070
     1
1002
}
1001
ACAD
1000
DSTYLE
1002
{
1070
    41
1040
2.0
1070
    40
1040
0.0
1070
   147
1040
0.5
1070
    77
1070
     0
1002
}
  0
TEXT
  5
1FF7
102
{ACAD_XDICTIONARY
360
1FF8
102
}
330
1F
100
AcDbEntity
  8
文字
100
AcDbText
 10
804.4670050761428
 20
3117.30964467005
 30
0.0
 40
40.0
  1
B
  7
Annotative
 72
     1
 11
820.0000000000006
 21
3109.999999999999
 31
0.0
100
AcDbText
 73
     1
1001
AcadAnnotative
1000
AnnotativeData
1002
{
1070
     1
1070
     1
1002
}
  0
TEXT
  5
1FFC
102
{ACAD_XDICTIONARY
360
1FFD
102
}
330
1F
100
AcDbEntity
  8
文字
100
AcDbText
 10
1764.467005076143
 20
3117.30964467005
 30
0.0
 40
40.0
  1
B
  7
Annotative
 72
     1
 11
1780.000000000001
 21
3109.999999999999
 31
0.0
100
AcDbText
 73
     1
1001
AcadAnnotative
1000
AnnotativeData
1002
{
1070
     1
1070
     1
1002
}
  0
LEADER
  5
2002
102
{ACAD_XDICTIONARY
360
2003
102
}
330
1F
100
AcDbEntity
  8
中心線
100
AcDbLeader
  3
Annotative
 76
     2
 10
820.0000000000009
 20
4569.999999999999
 30
0.0
 10
820.0000000000009
 20
4469.999999999998
 30
0.0
1001
AcadAnnotative
1000
AnnotativeData
1002
{
1070
     1
1070
     1
1002
}
1001
ACAD
1000
DSTYLE
1002
{
1070
    41
1040
2.0
1070
    40
1040
0.0
1070
   147
1040
0.5
1070
    77
1070
     0
1002
}
  0
LEADER
  5
2007
102
{ACAD_XDICTIONARY
360
2008
102
}
330
1F
100
AcDbEntity
  8
中心線
100
AcDbLeader
  3
Annotative
 76
     2
 10
1780.000000000001
 20
4569.999999999999
 30
0.0
 10
1780.000000000001
 20
4469.999999999998
 30
0.0
1001
AcadAnnotative
1000
AnnotativeData
1002
{
1070
     1
1070
     1
1002
}
1001
ACAD
1000
DSTYLE
1002
{
1070
    41
1040
2.0
1070
    40
1040
0.0
1070
   147
1040
0.5
1070
    77
1070
     0
1002
}
  0
TEXT
  5
2011
102
{ACAD_XDICTIONARY
360
2012
102
}
330
1F
100
AcDbEntity
  8
文字
100
AcDbText
 10
560.0
 20
5359.137055837563
 30
0.0
 40
50.0
  1
平面図
  7
Annotative
 11
560.0
 21
5349.999999999999
 31
0.0
100
AcDbText
 73
     1
1001
AcadAnnotative
1000
AnnotativeData
1002
{
1070
     1
1070
     1
1002
}
  0
LINE
  5
2016
330
1F
100
AcDbEntity
  8
文字
100
AcDbLine
 10
560.0
 20
5349.999999999999
 30
0.0
 11
756.086847258498
 21
5349.999999999999
 31
0.0
  0
TEXT
  5
2018
102
{ACAD_XDICTIONARY
360
2019
102
}
330
1F
100
AcDbEntity
  8
文字
100
AcDbText
 10
560.0
 20
3479.137055837563
 30
0.0
 40
50.0
  1
側面図
  7
Annotative
 11
560.0
 21
3469.999999999999
 31
0.0
100
AcDbText
 73
     1
1001
AcadAnnotative
1000
AnnotativeData
1002
{
1070
     1
1070
     1
1002
}
  0
LINE
  5
201D
330
1F
100
AcDbEntity
  8
文字
100
AcDbLine
 10
560.0
 20
3469.999999999999
 30
0.0
 11
756.086847258498
 21
3469.999999999999
 31
0.0
  0
TEXT
  5
2020
102
{ACAD_XDICTIONARY
360
2021
102
}
330
1F
100
AcDbEntity
  8
文字
100
AcDbText
 10
2320.0
 20
3479.137055837563
 30
0.0
 40
50.0
  1
A-A断面図
  7
Annotative
 11
2320.0
 21
3469.999999999999
 31
0.0
100
AcDbText
 73
     1
1001
AcadAnnotative
1000
AnnotativeData
1002
{
1070
     1
1070
     1
1002
}
  0
LINE
  5
2025
330
1F
100
AcDbEntity
  8
文字
100
AcDbLine
 10
2320.0
 20
3469.999999999999
 30
0.0
 11
2632.927864703598
 21
3469.999999999999
 31
0.0
  0
TEXT
  5
2026
102
{ACAD_XDICTIONARY
360
2027
102
}
330
1F
100
AcDbEntity
  8
文字
100
AcDbText
 10
719.9999999999995
 20
1879.137055837562
 30
0.0
 40
50.0
  1
B-B断面図
  7
Annotative
 11
719.9999999999995
 21
1869.999999999999
 31
0.0
100
AcDbText
 73
     1
1001
AcadAnnotative
1000
AnnotativeData
1002
{
1070
     1
1070
     1
1002
}
  0
LINE
  5
202B
330
1F
100
AcDbEntity
  8
文字
100
AcDbLine
 10
719.9999999999995
 20
1869.999999999999
 30
0.0
 11
1032.927864703596
 21
1869.999999999999
 31
0.0
  0
LEADER
  5
204A
102
{ACAD_XDICTIONARY
360
204B
102
}
330
1F
100
AcDbEntity
  8
寸法線
100
AcDbLeader
  3
Annotative
 76
     2
 10
1696.000000000001
 20
3365.999999999999
 30
0.0
 10
1780.266666666668
 20
3444.999999999999
 30
0.0
1001
ACAD
1000
DSTYLE
1002
{
1070
    40
1040
0.0
1070
   147
1040
0.5
1070
    77
1070
     0
1002
}
1001
AcadAnnotative
1000
AnnotativeData
1002
{
1070
     1
1070
     1
1002
}
  0
TEXT
  5
204F
102
{ACAD_XDICTIONARY
360
2050
102
}
330
1F
100
AcDbEntity
  8
寸法線
100
AcDbText
 10
1780.266666666668
 20
3452.30964467005
 30
0.0
 40
40.0
  1
C8
  7
Annotative
 11
1780.266666666668
 21
3444.999999999999
 31
0.0
100
AcDbText
 73
     1
1001
AcadAnnotative
1000
AnnotativeData
1002
{
1070
     1
1070
     1
1002
}
  0
LINE
  5
2054
330
1F
100
AcDbEntity
  8
寸法線
100
AcDbLine
 10
1780.266666666668
 20
3444.999999999999
 30
0.0
 11
1844.405735185709
 21
3444.999999999999
 31
0.0
  0
LEADER
  5
2059
102
{ACAD_XDICTIONARY
360
205A
102
}
330
1F
100
AcDbEntity
  8
文字
100
AcDbLeader
  3
Annotative
 76
     2
 10
1300.000000000001
 20
3344.999999999999
 30
0.0
 10
1485.000000000001
 20
3529.999999999999
 30
0.0
1001
ACAD
1000
DSTYLE
1002
{
1070
    40
1040
0.0
1070
   147
1040
0.5
1070
    77
1070
     0
1002
}
1001
AcadAnnotative
1000
AnnotativeData
1002
{
1070
     1
1070
     1
1002
}
  0
TEXT
  5
205F
102
{ACAD_XDICTIONARY
360
2060
102
}
330
1F
100
AcDbEntity
  8
文字
100
AcDbText
 10
1485.000000000001
 20
3537.30964467005
 30
0.0
 40
40.0
  1
グレーチング
  7
Annotative
 11
1485.000000000001
 21
3529.999999999999
 31
0.0
100
AcDbText
 73
     1
1001
AcadAnnotative
1000
AnnotativeData
1002
{
1070
     1
1070
     1
1002
}
  0
LINE
  5
2064
330
1F
100
AcDbEntity
  8
文字
100
AcDbLine
 10
1485.000000000001
 20
3529.999999999999
 30
0.0
 11
1756.121858329774
 21
3529.999999999999
 31
0.0
  0
VIEWPORT
  5
1985
102
{ACAD_XDICTIONARY
360
1986
102
}
330
197E
100
AcDbEntity
 67
     1
  8
0
100
AcDbViewport
 10
99.95958089828491
 20
143.4358978271484
 30
0.0
 40
768.1444476817955
 41
314.1477025756836
 68
     1
 69
     1
 12
99.95958089828491
 22
143.4358978271484
 13
0.0
 23
0.0
 14
10.0
 24
10.0
 15
10.0
 25
10.0
 16
0.0
 26
0.0
 36
1.0
 17
0.0
 27
0.0
 37
0.0
 42
50.0
 43
0.0
 44
0.0
 45
314.1477025756836
 50
0.0
 51
0.0
 72
  1000
 90
   557088
  1

281
     0
 71
     1
 74
     0
110
0.0
120
0.0
130
0.0
111
1.0
121
0.0
131
0.0
112
0.0
122
1.0
132
0.0
 79
     0
146
0.0
170
     0
 61
     5
348
F5
292
     1
282
     1
141
0.0
142
0.0
 63
   250
421
  3355443
  0
VIEWPORT
  5
1989
102
{ACAD_XDICTIONARY
360
198A
102
}
330
197E
100
AcDbEntity
 67
     1
  8
文字
100
AcDbViewport
 10
100.0
 20
143.5
 30
0.0
 40
210.0
 41
297.0
 68
     2
 69
     2
 12
2100.109418335031
 22
2970.000013830139
 13
0.0
 23
0.0
 14
10.0
 24
10.0
 15
10.0
 25
10.0
 16
0.0
 26
0.0
 36
1.0
 17
0.0
 27
0.0
 37
0.0
 42
50.0
 43
0.0
 44
0.0
 45
6012.112072558668
 50
0.0
 51
0.0
 72
  1000
 90
   819808
  1

281
     0
 71
     1
 74
     0
110
0.0
120
0.0
130
0.0
111
1.0
121
0.0
131
0.0
112
0.0
122
1.0
132
0.0
 79
     0
146
0.0
170
     0
 61
     5
348
F5
292
     1
282
     1
141
0.0
142
0.0
 63
   250
421
  3355443
  0
ENDSEC
  0
SECTION
  2
OBJECTS
  0
DICTIONARY
  5
C
330
0
100
AcDbDictionary
281
     1
  3
ACAD_CIP_PREVIOUS_PRODUCT_INFO
350
216
  3
ACAD_COLOR
350
6B
  3
ACAD_DETAILVIEWSTYLE
350
21B
  3
ACAD_GROUP
350
D
  3
ACAD_LAYOUT
350
1A
  3
ACAD_MATERIAL
350
6A
  3
ACAD_MLEADERSTYLE
350
12D
  3
ACAD_MLINESTYLE
350
17
  3
ACAD_PLOTSETTINGS
350
19
  3
ACAD_PLOTSTYLENAME
350
E
  3
ACAD_SCALELIST
350
10C
  3
ACAD_SECTIONVIEWSTYLE
350
219
  3
ACAD_TABLESTYLE
350
7E
  3
ACAD_VISUALSTYLE
350
EF
  3
AcadDim_CRX
350
205E
  3
ACDB_RECOMPOSE_DATA
350
2691
  3
AcDbVariableDictionary
350
5E
  0
DICTIONARY
  5
1FF
330
2
100
AcDbDictionary
280
     1
281
     1
  3
ACAD_LAYERSTATES
360
200
  0
DICTIONARY
  5
13C
330
10
100
AcDbDictionary
280
     1
281
     1
  0
DICTIONARY
  5
1CE
330
1F
100
AcDbDictionary
280
     1
281
     1
  3
ACAD_SORTENTS
360
256
  0
DICTIONARY
  5
191E
330
191D
100
AcDbDictionary
280
     1
281
     1
  3
AcDbContextDataManager
360
191F
  0
DICTIONARY
  5
1923
330
1922
100
AcDbDictionary
280
     1
281
     1
  3
AcDbContextDataManager
360
1924
  0
DICTIONARY
  5
1928
330
1927
100
AcDbDictionary
280
     1
281
     1
  3
AcDbContextDataManager
360
1929
  0
DICTIONARY
  5
192D
330
192C
100
AcDbDictionary
280
     1
281
     1
  3
AcDbContextDataManager
360
192E
  0
DICTIONARY
  5
1932
330
1931
100
AcDbDictionary
280
     1
281
     1
  3
AcDbContextDataManager
360
1933
  0
DICTIONARY
  5
1937
330
1936
100
AcDbDictionary
280
     1
281
     1
  3
AcDbContextDataManager
360
1938
  0
DICTIONARY
  5
193C
330
193B
100
AcDbDictionary
280
     1
281
     1
  3
AcDbContextDataManager
360
193D
  0
DICTIONARY
  5
1A38
330
1A37
100
AcDbDictionary
280
     1
281
     1
  3
ACAD_DIMASSOC
360
1A48
  3
AcDbContextDataManager
360
1A39
  0
DICTIONARY
  5
1A54
330
1A53
100
AcDbDictionary
280
     1
281
     1
  3
ACAD_DIMASSOC
360
1A64
  3
AcDbContextDataManager
360
1A55
  0
DICTIONARY
  5
1A66
330
1A65
100
AcDbDictionary
280
     1
281
     1
  3
ACAD_DIMASSOC
360
1A76
  3
AcDbContextDataManager
360
1A67
  0
DICTIONARY
  5
1A78
330
1A77
100
AcDbDictionary
280
     1
281
     1
  3
ACAD_DIMASSOC
360
1A88
  3
AcDbContextDataManager
360
1A79
  0
DICTIONARY
  5
1AB2
330
1AB1
100
AcDbDictionary
280
     1
281
     1
  3
ACAD_DIMASSOC
360
1AC2
  3
AcDbContextDataManager
360
1AB3
  0
DICTIONARY
  5
1AC4
330
1AC3
100
AcDbDictionary
280
     1
281
     1
  3
ACAD_DIMASSOC
360
1AD4
  3
AcDbContextDataManager
360
1AC5
  0
DICTIONARY
  5
1AD6
330
1AD5
100
AcDbDictionary
280
     1
281
     1
  3
ACAD_DIMASSOC
360
1AE6
  3
AcDbContextDataManager
360
1AD7
  0
DICTIONARY
  5
1AE8
330
1AE7
100
AcDbDictionary
280
     1
281
     1
  3
ACAD_DIMASSOC
360
1AF8
  3
AcDbContextDataManager
360
1AE9
  0
DICTIONARY
  5
1AFA
330
1AF9
100
AcDbDictionary
280
     1
281
     1
  3
ACAD_DIMASSOC
360
1B0A
  3
AcDbContextDataManager
360
1AFB
  0
DICTIONARY
  5
1B0C
330
1B0B
100
AcDbDictionary
280
     1
281
     1
  3
ACAD_DIMASSOC
360
1B1E
  3
AcDbContextDataManager
360
1B0D
  0
DICTIONARY
  5
1B36
330
1B35
100
AcDbDictionary
280
     1
281
     1
  3
ACAD_DIMASSOC
360
1B46
  3
AcDbContextDataManager
360
1B37
  0
DICTIONARY
  5
1B48
330
1B47
100
AcDbDictionary
280
     1
281
     1
  3
ACAD_DIMASSOC
360
1B5A
  3
AcDbContextDataManager
360
1B49
  0
DICTIONARY
  5
1B5C
330
1B5B
100
AcDbDictionary
280
     1
281
     1
  3
ACAD_DIMASSOC
360
1B6C
  3
AcDbContextDataManager
360
1B5D
  0
DICTIONARY
  5
1B86
330
1B85
100
AcDbDictionary
280
     1
281
     1
  3
ACAD_DIMASSOC
360
1B94
  3
AcDbContextDataManager
360
1B87
  0
DICTIONARY
  5
1B96
330
1B95
100
AcDbDictionary
280
     1
281
     1
  3
ACAD_DIMASSOC
360
1BA6
  3
AcDbContextDataManager
360
1B97
  0
DICTIONARY
  5
1BAA
330
1BA9
100
AcDbDictionary
280
     1
281
     1
  3
ACAD_DIMASSOC
360
1BBA
  3
AcDbContextDataManager
360
1BAB
  0
DICTIONARY
  5
1BBC
330
1BBB
100
AcDbDictionary
280
     1
281
     1
  3
ACAD_DIMASSOC
360
1BCA
  3
AcDbContextDataManager
360
1BBD
  0
DICTIONARY
  5
1BCC
330
1BCB
100
AcDbDictionary
280
     1
281
     1
  3
ACAD_DIMASSOC
360
1BDC
  3
AcDbContextDataManager
360
1BCD
  0
DICTIONARY
  5
1BDF
330
1BDE
100
AcDbDictionary
280
     1
281
     1
  3
ACAD_DIMASSOC
360
1BEF
  3
AcDbContextDataManager
360
1BE0
  0
DICTIONARY
  5
1BF1
330
1BF0
100
AcDbDictionary
280
     1
281
     1
  3
ACAD_DIMASSOC
360
1C03
  3
AcDbContextDataManager
360
1BF2
  0
DICTIONARY
  5
1C1B
330
1C1A
100
AcDbDictionary
280
     1
281
     1
  3
ACAD_DIMASSOC
360
1C2B
  3
AcDbContextDataManager
360
1C1C
  0
DICTIONARY
  5
1C2D
330
1C2C
100
AcDbDictionary
280
     1
281
     1
  3
ACAD_DIMASSOC
360
1C3F
  3
AcDbContextDataManager
360
1C2E
  0
DICTIONARY
  5
1C41
330
1C40
100
AcDbDictionary
280
     1
281
     1
  3
ACAD_DIMASSOC
360
1C51
  3
AcDbContextDataManager
360
1C42
  0
DICTIONARY
  5
1C7C
330
1C7B
100
AcDbDictionary
280
     1
281
     1
  3
ACAD_DIMASSOC
360
1C8C
  3
AcDbContextDataManager
360
1C7D
  0
DICTIONARY
  5
1C8E
330
1C8D
100
AcDbDictionary
280
     1
281
     1
  3
ACAD_DIMASSOC
360
1C9E
  3
AcDbContextDataManager
360
1C8F
  0
DICTIONARY
  5
1CA0
330
1C9F
100
AcDbDictionary
280
     1
281
     1
  3
ACAD_DIMASSOC
360
1CB0
  3
AcDbContextDataManager
360
1CA1
  0
DICTIONARY
  5
1D09
330
1D08
100
AcDbDictionary
280
     1
281
     1
  3
ACAD_DIMASSOC
360
1D17
  3
AcDbContextDataManager
360
1D0A
  0
DICTIONARY
  5
1D19
330
1D18
100
AcDbDictionary
280
     1
281
     1
  3
ACAD_DIMASSOC
360
1D29
  3
AcDbContextDataManager
360
1D1A
  0
DICTIONARY
  5
1D2B
330
1D2A
100
AcDbDictionary
280
     1
281
     1
  3
ACAD_DIMASSOC
360
1D3B
  3
AcDbContextDataManager
360
1D2C
  0
DICTIONARY
  5
1D3E
330
1D3D
100
AcDbDictionary
280
     1
281
     1
  3
ACAD_DIMASSOC
360
1D4E
  3
AcDbContextDataManager
360
1D3F
  0
DICTIONARY
  5
1D59
330
1D58
100
AcDbDictionary
280
     1
281
     1
  3
ACAD_DIMASSOC
360
1D6B
  3
AcDbContextDataManager
360
1D5A
  0
DICTIONARY
  5
1D6D
330
1D6C
100
AcDbDictionary
280
     1
281
     1
  3
ACAD_DIMASSOC
360
1D7D
  3
AcDbContextDataManager
360
1D6E
  0
DICTIONARY
  5
1D7F
330
1D7E
100
AcDbDictionary
280
     1
281
     1
  3
ACAD_DIMASSOC
360
1D91
  3
AcDbContextDataManager
360
1D80
  0
DICTIONARY
  5
1D93
330
1D92
100
AcDbDictionary
280
     1
281
     1
  3
ACAD_DIMASSOC
360
1DA3
  3
AcDbContextDataManager
360
1D94
  0
DICTIONARY
  5
1FAD
330
1FAC
100
AcDbDictionary
280
     1
281
     1
  3
AcDbContextDataManager
360
1FAE
  0
DICTIONARY
  5
1FB3
330
1FB2
100
AcDbDictionary
280
     1
281
     1
  3
AcDbContextDataManager
360
1FB4
  0
DICTIONARY
  5
1FB9
330
1FB8
100
AcDbDictionary
280
     1
281
     1
  3
AcDbContextDataManager
360
1FBA
  0
DICTIONARY
  5
1FC0
330
1FBF
100
AcDbDictionary
280
     1
281
     1
  3
AcDbContextDataManager
360
1FC1
  0
DICTIONARY
  5
1FC5
330
1FC4
100
AcDbDictionary
280
     1
281
     1
  3
AcDbContextDataManager
360
1FC6
  0
DICTIONARY
  5
1FCA
330
1FC9
100
AcDbDictionary
280
     1
281
     1
  3
AcDbContextDataManager
360
1FCB
  0
DICTIONARY
  5
1FE0
330
1FDF
100
AcDbDictionary
280
     1
281
     1
  3
AcDbContextDataManager
360
1FE1
  0
DICTIONARY
  5
1FE5
330
1FE4
100
AcDbDictionary
280
     1
281
     1
  3
AcDbContextDataManager
360
1FE6
  0
DICTIONARY
  5
1FEE
330
1FED
100
AcDbDictionary
280
     1
281
     1
  3
AcDbContextDataManager
360
1FEF
  0
DICTIONARY
  5
1FF3
330
1FF2
100
AcDbDictionary
280
     1
281
     1
  3
AcDbContextDataManager
360
1FF4
  0
DICTIONARY
  5
1FF8
330
1FF7
100
AcDbDictionary
280
     1
281
     1
  3
AcDbContextDataManager
360
1FF9
  0
DICTIONARY
  5
1FFD
330
1FFC
100
AcDbDictionary
280
     1
281
     1
  3
AcDbContextDataManager
360
1FFE
  0
DICTIONARY
  5
2003
330
2002
100
AcDbDictionary
280
     1
281
     1
  3
AcDbContextDataManager
360
2004
  0
DICTIONARY
  5
2008
330
2007
100
AcDbDictionary
280
     1
281
     1
  3
AcDbContextDataManager
360
2009
  0
DICTIONARY
  5
2012
330
2011
100
AcDbDictionary
280
     1
281
     1
  3
AcDbContextDataManager
360
2013
  0
DICTIONARY
  5
2019
330
2018
100
AcDbDictionary
280
     1
281
     1
  3
AcDbContextDataManager
360
201A
  0
DICTIONARY
  5
2021
330
2020
100
AcDbDictionary
280
     1
281
     1
  3
AcDbContextDataManager
360
2022
  0
DICTIONARY
  5
2027
330
2026
100
AcDbDictionary
280
     1
281
     1
  3
AcDbContextDataManager
360
2028
  0
DICTIONARY
  5
204B
330
204A
100
AcDbDictionary
280
     1
281
     1
  3
AcDbContextDataManager
360
204C
  0
DICTIONARY
  5
2050
330
204F
100
AcDbDictionary
280
     1
281
     1
  3
AcDbContextDataManager
360
2051
  0
DICTIONARY
  5
205A
330
2059
100
AcDbDictionary
280
     1
281
     1
  3
AcDbContextDataManager
360
205B
  0
DICTIONARY
  5
2060
330
205F
100
AcDbDictionary
280
     1
281
     1
  3
AcDbContextDataManager
360
2061
  0
DICTIONARY
  5
1986
330
1985
100
AcDbDictionary
280
     1
281
     1
  3
ASDK_XREC_ANNOTATION_SCALE_INFO
360
1987
  0
DICTIONARY
  5
198A
330
1989
100
AcDbDictionary
280
     1
281
     1
  3
ASDK_XREC_ANNOTATION_SCALE_INFO
360
198B
  0
XRECORD
  5
216
102
{ACAD_REACTORS
330
C
102
}
330
C
100
AcDbXrecord
280
     1
300
ACDLT
300
2014
300
ACDLT_F_S
  0
DICTIONARY
  5
6B
102
{ACAD_REACTORS
330
C
102
}
330
C
100
AcDbDictionary
281
     1
  0
DICTIONARY
  5
21B
102
{ACAD_REACTORS
330
C
102
}
330
C
100
AcDbDictionary
281
     1
  3
Metric50
350
21C
  0
DICTIONARY
  5
D
102
{ACAD_REACTORS
330
C
102
}
330
C
100
AcDbDictionary
281
     1
  0
DICTIONARY
  5
1A
102
{ACAD_REACTORS
330
C
102
}
330
C
100
AcDbDictionary
281
     1
  3
20A4tate
350
197F
  3
Model
350
22
  0
DICTIONARY
  5
6A
102
{ACAD_REACTORS
330
C
102
}
330
C
100
AcDbDictionary
281
     1
  3
ByBlock
350
ED
  3
ByLayer
350
EC
  3
Global
350
EE
  0
DICTIONARY
  5
12D
102
{ACAD_REACTORS
330
C
102
}
330
C
100
AcDbDictionary
281
     1
  3
Annotative
350
13B
  3
Standard
350
12E
  0
DICTIONARY
  5
17
102
{ACAD_REACTORS
330
C
102
}
330
C
100
AcDbDictionary
281
     1
  3
Standard
350
18
  0
DICTIONARY
  5
19
102
{ACAD_REACTORS
330
C
102
}
330
C
100
AcDbDictionary
281
     1
  0
ACDBDICTIONARYWDFLT
  5
E
102
{ACAD_REACTORS
330
C
102
}
330
C
100
AcDbDictionary
281
     1
  3
Normal
350
F
100
AcDbDictionaryWithDefault
340
F
  0
DICTIONARY
  5
10C
102
{ACAD_REACTORS
330
C
102
}
330
C
100
AcDbDictionary
281
     1
  3
A0
350
10D
  3
A1
350
1BE
  3
A2
350
1BF
  3
A3
350
1C0
  3
A4
350
1C1
  3
A5
350
1C2
  3
A6
350
1C3
  3
A7
350
1C4
  3
A8
350
1C5
  3
A9
350
1C6
  3
B0
350
1C7
  3
B1
350
1C8
  3
B2
350
1C9
  3
B3
350
1CA
  3
B4
350
1CB
  3
B5
350
1CC
  3
B6
350
1CD
  0
DICTIONARY
  5
219
102
{ACAD_REACTORS
330
C
102
}
330
C
100
AcDbDictionary
281
     1
  3
Metric50
350
21A
  0
DICTIONARY
  5
7E
102
{ACAD_REACTORS
330
C
102
}
330
C
100
AcDbDictionary
281
     1
  3
Standard
350
7F
  0
DICTIONARY
  5
EF
102
{ACAD_REACTORS
330
C
102
}
330
C
100
AcDbDictionary
281
     1
  3
2dWireframe
350
F5
  3
Basic
350
F4
  3
Brighten
350
FB
  3
ColorChange
350
FF
  3
Conceptual
350
F8
  3
Dim
350
FA
  3
EdgeColorOff
350
1E6
  3
Facepattern
350
FE
  3
Flat
350
F0
  3
FlatWithEdges
350
F1
  3
Gouraud
350
F2
  3
GouraudWithEdges
350
F3
  3
Hidden
350
F7
  3
JitterOff
350
1E4
  3
Linepattern
350
FD
  3
OverhangOff
350
1E5
  3
Realistic
350
F9
  3
Shaded
350
1F3
  3
Shaded with edges
350
1F2
  3
Shades of Gray
350
1EF
  3
Sketchy
350
1F0
  3
Thicken
350
FC
  3
Wireframe
350
F6
  3
X-Ray
350
1F1
  0
XRECORD
  5
205E
102
{ACAD_REACTORS
330
C
102
}
330
C
100
AcDbXrecord
280
     1
 90
   990106
  3

 60
     0
 61
     0
 62
     1
 63
     3
 64
     0
 65
     0
 66
     0
 67
     3
 68
     1
 69
     0
 70
     0
 71
     0
 72
     0
 40
0.0
170
     0
  0
XRECORD
  5
2691
102
{ACAD_REACTORS
330
C
102
}
330
C
100
AcDbXrecord
280
     1
 90
        1
330
7F
330
21A
330
21C
330
1B0B
330
1B47
330
1BF0
330
1D58
330
1D7E
  0
DICTIONARY
  5
5E
102
{ACAD_REACTORS
330
C
102
}
330
C
100
AcDbDictionary
281
     1
  3
CANNOSCALE
350
146
  3
CMLEADERSTYLE
350
145
  3
CTABLESTYLE
350
84
  3
CVIEWDETAILSTYLE
350
227
  3
CVIEWSECTIONSTYLE
350
228
  3
DIMASSOC
350
5F
  3
HIDETEXT
350
63
  3
LAYEREVAL
350
1AE
  3
LAYERNOTIFY
350
1AF
  3
TEXTJUSTIFY
350
270
  0
DICTIONARY
  5
200
102
{ACAD_REACTORS
330
1FF
102
}
330
1FF
100
AcDbDictionary
281
     1
  0
SORTENTSTABLE
  5
256
102
{ACAD_REACTORS
330
1CE
102
}
330
1CE
100
AcDbSortentsTable
330
1F
331
1A25
  5
1B84
331
1A21
  5
1B47
331
19E6
  5
1A11
331
1A1D
  5
1AF9
331
19E2
  5
19C1
331
1A19
  5
1AD5
331
190E
  5
1912
331
1FEC
  5
2007
331
1FE4
  5
2002
331
19DE
  5
1A0D
331
1A15
  5
19E8
331
19DA
  5
1A08
331
193B
  5
193B
331
1A11
  5
1A77
331
19D6
  5
1A05
331
1A0D
  5
19E0
331
19D2
  5
19F7
331
1A09
  5
1A01
331
1BA7
  5
1CBF
331
1D08
  5
1FBE
331
1D04
  5
1FB1
331
1C8D
  5
1CFF
331
1AF9
  5
1CB6
331
19CE
  5
19F3
331
1A05
  5
1A35
331
19CA
  5
19EE
331
1A01
  5
1A2D
331
1927
  5
1927
331
1CFC
  5
1F9D
331
1BCB
  5
1CF8
331
1C1A
  5
1CFB
331
2007
  5
2025
331
1FC4
  5
1FEC
331
19F5
  5
1A25
331
19BE
  5
19C2
331
19F1
  5
1A24
331
19BA
  5
19BA
331
1A2C
  5
1BDD
331
19ED
  5
19DE
331
1A28
  5
1BA7
331
19E9
  5
1A19
331
1913
  5
1913
331
1CBC
  5
1D04
331
1BBB
  5
1CF6
331
1CB8
  5
1D07
331
1AD5
  5
1C8D
331
204A
  5
2059
331
1FF7
  5
2018
331
1FB8
  5
1FD4
331
1D2A
  5
1FC4
331
1A24
  5
1B83
331
1A20
  5
1B35
331
19E5
  5
1A10
331
1A1C
  5
1AE7
331
19E1
  5
1A0E
331
1A18
  5
1AC3
331
190D
  5
190E
331
1B5B
  5
1CBA
331
2026
  5
2054
331
1FAC
  5
1FD2
331
19DD
  5
1A0C
331
19D9
  5
1A07
331
1A10
  5
1A65
331
1A53
  5
1C1A
331
19D5
  5
1A04
331
1936
  5
1936
331
1A0C
  5
1A27
331
1BDE
  5
1CF9
331
19D1
  5
19F6
331
1A08
  5
19FF
331
1D07
  5
1FBD
331
1D03
  5
1FAC
331
1B47
  5
1CB9
331
1AB1
  5
1C7A
331
1FDF
  5
1FFC
331
2016
  5
202B
331
19CD
  5
19F2
331
1A04
  5
1A34
331
19C9
  5
19ED
331
1A00
  5
1A2C
331
19C1
  5
19EB
331
1CFB
  5
1D92
331
1922
  5
1922
331
2059
  5
2065
331
1D3D
  5
1FC9
331
2002
  5
2020
331
1A37
  5
1BF0
331
19F4
  5
19DC
331
19BD
  5
19BE
331
19F0
  5
19D7
331
19B9
  5
19B9
331
1A2B
  5
1BCB
331
19EC
  5
19D3
331
1CBF
  5
1D2A
331
1916
  5
1916
331
19E8
  5
1A16
331
1CBB
  5
1D18
331
1912
  5
190C
331
1C40
  5
1CFD
331
1FBF
  5
1FE4
331
1FF2
  5
2016
331
1A27
  5
1B95
331
19E4
  5
1A0F
331
1C9F
  5
1D00
331
190C
  5
1910
331
1B0B
  5
1CB7
331
1BA9
  5
1CC1
331
1D6C
  5
1FCF
331
2025
  5
204F
331
1D58
  5
1FCE
331
19DC
  5
1A0B
331
19D8
  5
1A06
331
1A0F
  5
1A53
331
19D4
  5
1A00
331
1A0B
  5
1A22
331
19D0
  5
19F5
331
1931
  5
1931
331
1C2C
  5
1CFC
331
2064
  5
24C4
331
201D
  5
2048
331
2011
  5
2026
331
1FD2
  5
1FF7
331
1A07
  5
19E6
331
19CC
  5
19F0
331
1A03
  5
1A33
331
19C8
  5
19EC
331
19FF
  5
1A2B
331
1CFE
  5
1FAB
331
1CFA
  5
1D7E
331
1B95
  5
1CBE
331
19C0
  5
19E7
331
1C7B
  5
1CFE
331
1AE7
  5
1C9F
331
2054
  5
2064
331
1FCE
  5
1FF2
331
19F7
  5
19E4
331
19F3
  5
1A28
331
19BC
  5
19BC
331
191D
  5
191D
331
19EF
  5
1A26
331
1A2A
  5
1BBB
331
19EB
  5
1A1D
331
1CBE
  5
1D08
331
1915
  5
1915
331
1CBA
  5
1D3D
331
1B85
  5
1CBD
331
1911
  5
190B
331
1BF0
  5
1CFA
331
1FB2
  5
1FD3
331
1D18
  5
1FBF
331
1A26
  5
1B85
331
1A22
  5
1B5B
331
1A65
  5
1C2C
331
19E7
  5
1A15
331
1A1E
  5
1B0B
331
19E3
  5
19BD
331
190F
  5
188B
331
190B
  5
17CD
331
1AC3
  5
1C7B
331
1FED
  5
2011
331
2020
  5
204A
331
1A16
  5
1AB1
331
19DB
  5
1A0A
331
1A0E
  5
1A37
331
19D3
  5
19FE
331
1A0A
  5
19D4
331
2018
  5
2047
331
19CF
  5
19F4
331
1A06
  5
19D2
331
19CB
  5
19EF
331
192C
  5
192C
331
1A02
  5
1A32
331
19FE
  5
1A2A
331
1CFD
  5
1FA7
331
1CC1
  5
1D6C
331
205F
  5
232D
331
1B35
  5
1CB8
331
1FC9
  5
1FED
331
1D92
  5
1FD1
331
19F6
  5
1A29
331
19BF
  5
19E5
331
19F2
  5
19E3
331
19BB
  5
19BB
331
1A2D
  5
1BDE
331
19EE
  5
1A20
331
1A29
  5
1BA9
331
19EA
  5
1A1C
331
1CBD
  5
1D58
331
1914
  5
1914
331
1CB9
  5
1D03
331
1A77
  5
1C40
331
1B84
  5
1CBB
331
1910
  5
188C
331
204F
  5
205F
331
202B
  5
2055
331
1FFC
  5
201D
331
1FBD
  5
1FDF
331
1D7E
  5
1FD0
  0
DICTIONARY
  5
191F
102
{ACAD_REACTORS
330
191E
102
}
330
191E
100
AcDbDictionary
281
     1
  3
ACDB_ANNOTATIONSCALES
350
1920
  0
DICTIONARY
  5
1924
102
{ACAD_REACTORS
330
1923
102
}
330
1923
100
AcDbDictionary
281
     1
  3
ACDB_ANNOTATIONSCALES
350
1925
  0
DICTIONARY
  5
1929
102
{ACAD_REACTORS
330
1928
102
}
330
1928
100
AcDbDictionary
281
     1
  3
ACDB_ANNOTATIONSCALES
350
192A
  0
DICTIONARY
  5
192E
102
{ACAD_REACTORS
330
192D
102
}
330
192D
100
AcDbDictionary
281
     1
  3
ACDB_ANNOTATIONSCALES
350
192F
  0
DICTIONARY
  5
1933
102
{ACAD_REACTORS
330
1932
102
}
330
1932
100
AcDbDictionary
281
     1
  3
ACDB_ANNOTATIONSCALES
350
1934
  0
DICTIONARY
  5
1938
102
{ACAD_REACTORS
330
1937
102
}
330
1937
100
AcDbDictionary
281
     1
  3
ACDB_ANNOTATIONSCALES
350
1939
  0
DICTIONARY
  5
193D
102
{ACAD_REACTORS
330
193C
102
}
330
193C
100
AcDbDictionary
281
     1
  3
ACDB_ANNOTATIONSCALES
350
193E
  0
DIMASSOC
  5
1A48
102
{ACAD_REACTORS
330
1A38
102
}
330
1A38
100
AcDbDimAssoc
330
1A37
 90
        3
 70
     0
 71
     0
  1
AcDbOsnapPointRef
 72
     1
331
19F1
 73
     2
 91
        0
 40
1.0
 10
0.0
 20
0.0
 30
2.000000000000000E+50
 75
     0
  1
AcDbOsnapPointRef
 72
    13
331
1A0E
 73
     2
 91
        0
 40
0.0
 10
0.0
 20
0.0
 30
2.000000000000000E+50
 75
     0
  0
DICTIONARY
  5
1A39
102
{ACAD_REACTORS
330
1A38
102
}
330
1A38
100
AcDbDictionary
281
     1
  3
ACDB_ANNOTATIONSCALES
350
1A3A
  0
DIMASSOC
  5
1A64
102
{ACAD_REACTORS
330
1A54
102
}
330
1A54
100
AcDbDimAssoc
330
1A53
 90
        3
 70
     0
 71
     0
  1
AcDbOsnapPointRef
 72
     1
331
19F1
 73
     2
 91
        0
 40
1.0
 10
0.0
 20
0.0
 30
2.000000000000000E+50
 75
     0
  1
AcDbOsnapPointRef
 72
    13
331
19F1
 73
     2
 91
        0
 40
0.0
 10
0.0
 20
0.0
 30
2.000000000000000E+50
 75
     0
  0
DICTIONARY
  5
1A55
102
{ACAD_REACTORS
330
1A54
102
}
330
1A54
100
AcDbDictionary
281
     1
  3
ACDB_ANNOTATIONSCALES
350
1A56
  0
DIMASSOC
  5
1A76
102
{ACAD_REACTORS
330
1A66
102
}
330
1A66
100
AcDbDimAssoc
330
1A65
 90
        3
 70
     0
 71
     0
  1
AcDbOsnapPointRef
 72
    13
331
19F1
 73
     2
 91
        0
 40
0.0
 10
0.0
 20
0.0
 30
2.000000000000000E+50
 75
     0
  1
AcDbOsnapPointRef
 72
    13
331
1A11
 73
     2
 91
        0
 40
0.0
 10
0.0
 20
0.0
 30
2.000000000000000E+50
 75
     0
  0
DICTIONARY
  5
1A67
102
{ACAD_REACTORS
330
1A66
102
}
330
1A66
100
AcDbDictionary
281
     1
  3
ACDB_ANNOTATIONSCALES
350
1A68
  0
DIMASSOC
  5
1A88
102
{ACAD_REACTORS
330
1A78
102
}
330
1A78
100
AcDbDimAssoc
330
1A77
 90
        3
 70
     0
 71
     0
  1
AcDbOsnapPointRef
 72
    13
331
1A11
 73
     2
 91
        0
 40
0.0
 10
0.0
 20
0.0
 30
2.000000000000000E+50
 75
     0
  1
AcDbOsnapPointRef
 72
     1
331
19EE
 73
     2
 91
        0
 40
1.0
 10
0.0
 20
0.0
 30
2.000000000000000E+50
 75
     0
  0
DICTIONARY
  5
1A79
102
{ACAD_REACTORS
330
1A78
102
}
330
1A78
100
AcDbDictionary
281
     1
  3
ACDB_ANNOTATIONSCALES
350
1A7A
  0
DIMASSOC
  5
1AC2
102
{ACAD_REACTORS
330
1AB2
102
}
330
1AB2
100
AcDbDimAssoc
330
1AB1
 90
        3
 70
     0
 71
     0
  1
AcDbOsnapPointRef
 72
     1
331
19F1
 73
     2
 91
        0
 40
1.0
 10
0.0
 20
0.0
 30
2.000000000000000E+50
 75
     0
  1
AcDbOsnapPointRef
 72
     1
331
19EE
 73
     2
 91
        0
 40
1.0
 10
0.0
 20
0.0
 30
2.000000000000000E+50
 75
     0
  0
DICTIONARY
  5
1AB3
102
{ACAD_REACTORS
330
1AB2
102
}
330
1AB2
100
AcDbDictionary
281
     1
  3
ACDB_ANNOTATIONSCALES
350
1AB4
  0
DIMASSOC
  5
1AD4
102
{ACAD_REACTORS
330
1AC4
102
}
330
1AC4
100
AcDbDimAssoc
330
1AC3
 90
        3
 70
     0
 71
     0
  1
AcDbOsnapPointRef
 72
     1
331
19F1
 73
     2
 91
        0
 40
1.0
 10
0.0
 20
0.0
 30
2.000000000000000E+50
 75
     0
  1
AcDbOsnapPointRef
 72
     1
331
19F3
 73
     2
 91
        0
 40
1.0
 10
0.0
 20
0.0
 30
2.000000000000000E+50
 75
     0
  0
DICTIONARY
  5
1AC5
102
{ACAD_REACTORS
330
1AC4
102
}
330
1AC4
100
AcDbDictionary
281
     1
  3
ACDB_ANNOTATIONSCALES
350
1AC6
  0
DIMASSOC
  5
1AE6
102
{ACAD_REACTORS
330
1AD6
102
}
330
1AD6
100
AcDbDimAssoc
330
1AD5
 90
        3
 70
     0
 71
     0
  1
AcDbOsnapPointRef
 72
     1
331
19F3
 73
     2
 91
        0
 40
1.0
 10
0.0
 20
0.0
 30
2.000000000000000E+50
 75
     0
  1
AcDbOsnapPointRef
 72
    13
331
1A0F
 73
     2
 91
        0
 40
0.0
 10
0.0
 20
0.0
 30
2.000000000000000E+50
 75
     0
  0
DICTIONARY
  5
1AD7
102
{ACAD_REACTORS
330
1AD6
102
}
330
1AD6
100
AcDbDictionary
281
     1
  3
ACDB_ANNOTATIONSCALES
350
1AD8
  0
DIMASSOC
  5
1AF8
102
{ACAD_REACTORS
330
1AE8
102
}
330
1AE8
100
AcDbDimAssoc
330
1AE7
 90
        3
 70
     0
 71
     0
  1
AcDbOsnapPointRef
 72
    13
331
1A0F
 73
     2
 91
        0
 40
0.0
 10
0.0
 20
0.0
 30
2.000000000000000E+50
 75
     0
  1
AcDbOsnapPointRef
 72
     1
331
19EE
 73
     2
 91
        0
 40
1.0
 10
0.0
 20
0.0
 30
2.000000000000000E+50
 75
     0
  0
DICTIONARY
  5
1AE9
102
{ACAD_REACTORS
330
1AE8
102
}
330
1AE8
100
AcDbDictionary
281
     1
  3
ACDB_ANNOTATIONSCALES
350
1AEA
  0
DIMASSOC
  5
1B0A
102
{ACAD_REACTORS
330
1AFA
102
}
330
1AFA
100
AcDbDimAssoc
330
1AF9
 90
        3
 70
     0
 71
     0
  1
AcDbOsnapPointRef
 72
    13
331
1A2B
 73
     2
 91
        0
 40
0.0
 10
0.0
 20
0.0
 30
2.000000000000000E+50
 75
     0
  1
AcDbOsnapPointRef
 72
     1
331
1A1E
 73
     2
 91
        0
 40
1.0
 10
0.0
 20
0.0
 30
2.000000000000000E+50
 75
     0
  0
DICTIONARY
  5
1AFB
102
{ACAD_REACTORS
330
1AFA
102
}
330
1AFA
100
AcDbDictionary
281
     1
  3
ACDB_ANNOTATIONSCALES
350
1AFC
  0
DIMASSOC
  5
1B1E
102
{ACAD_REACTORS
330
1B0C
102
}
330
1B0C
100
AcDbDimAssoc
330
1B0B
 90
        3
 70
     0
 71
     0
  1
AcDbOsnapPointRef
 72
     1
331
1A2B
 73
     2
 91
        0
 40
1.0
 10
0.0
 20
0.0
 30
2.000000000000000E+50
 75
     0
  1
AcDbOsnapPointRef
 72
    13
331
1A2B
 73
     2
 91
        0
 40
0.0
 10
0.0
 20
0.0
 30
2.000000000000000E+50
 75
     0
  0
DICTIONARY
  5
1B0D
102
{ACAD_REACTORS
330
1B0C
102
}
330
1B0C
100
AcDbDictionary
281
     1
  3
ACDB_ANNOTATIONSCALES
350
1B0E
  0
DIMASSOC
  5
1B46
102
{ACAD_REACTORS
330
1B36
102
}
330
1B36
100
AcDbDimAssoc
330
1B35
 90
        3
 70
     0
 71
     0
  1
AcDbOsnapPointRef
 72
     1
331
1A21
 73
     2
 91
        0
 40
1.0
 10
0.0
 20
0.0
 30
2.000000000000000E+50
 75
     0
  1
AcDbOsnapPointRef
 72
    13
331
1A21
 73
     2
 91
        0
 40
0.0
 10
0.0
 20
0.0
 30
2.000000000000000E+50
 75
     0
  0
DICTIONARY
  5
1B37
102
{ACAD_REACTORS
330
1B36
102
}
330
1B36
100
AcDbDictionary
281
     1
  3
ACDB_ANNOTATIONSCALES
350
1B38
  0
DIMASSOC
  5
1B5A
102
{ACAD_REACTORS
330
1B48
102
}
330
1B48
100
AcDbDimAssoc
330
1B47
 90
        3
 70
     0
 71
     0
  1
AcDbOsnapPointRef
 72
     1
331
1A2A
 73
     2
 91
        0
 40
1.0
 10
0.0
 20
0.0
 30
2.000000000000000E+50
 75
     0
  1
AcDbOsnapPointRef
 72
    13
331
1A2A
 73
     2
 91
        0
 40
0.0
 10
0.0
 20
0.0
 30
2.000000000000000E+50
 75
     0
  0
DICTIONARY
  5
1B49
102
{ACAD_REACTORS
330
1B48
102
}
330
1B48
100
AcDbDictionary
281
     1
  3
ACDB_ANNOTATIONSCALES
350
1B4A
  0
DIMASSOC
  5
1B6C
102
{ACAD_REACTORS
330
1B5C
102
}
330
1B5C
100
AcDbDimAssoc
330
1B5B
 90
        3
 70
     0
 71
     0
  1
AcDbOsnapPointRef
 72
    13
331
1A2A
 73
     2
 91
        0
 40
0.0
 10
0.0
 20
0.0
 30
2.000000000000000E+50
 75
     0
  1
AcDbOsnapPointRef
 72
    13
331
1A1E
 73
     2
 91
        0
 40
0.0
 10
0.0
 20
0.0
 30
2.000000000000000E+50
 75
     0
  0
DICTIONARY
  5
1B5D
102
{ACAD_REACTORS
330
1B5C
102
}
330
1B5C
100
AcDbDictionary
281
     1
  3
ACDB_ANNOTATIONSCALES
350
1B5E
  0
DIMASSOC
  5
1B94
102
{ACAD_REACTORS
330
1B86
102
}
330
1B86
100
AcDbDimAssoc
330
1B85
 90
        3
 70
     0
 71
     0
  1
AcDbOsnapPointRef
 72
     6
331
1B84
 73
     2
 91
        0
 40
0.3333333333333333
 10
0.0
 20
0.0
 30
0.0
332
1A21
 74
     2
 92
        0
 75
     0
  1
AcDbOsnapPointRef
 72
     1
331
1B84
 73
     2
 91
        0
 40
1.0
 10
0.0
 20
0.0
 30
2.000000000000000E+50
 75
     0
  0
DICTIONARY
  5
1B87
102
{ACAD_REACTORS
330
1B86
102
}
330
1B86
100
AcDbDictionary
281
     1
  3
ACDB_ANNOTATIONSCALES
350
1B88
  0
DIMASSOC
  5
1BA6
102
{ACAD_REACTORS
330
1B96
102
}
330
1B96
100
AcDbDimAssoc
330
1B95
 90
        2
 70
     0
 71
     0
  1
AcDbOsnapPointRef
 72
    13
331
1B84
 73
     2
 91
        0
 40
0.0
 10
0.0
 20
0.0
 30
2.000000000000000E+50
 75
     0
  0
DICTIONARY
  5
1B97
102
{ACAD_REACTORS
330
1B96
102
}
330
1B96
100
AcDbDictionary
281
     1
  3
ACDB_ANNOTATIONSCALES
350
1B98
  0
DIMASSOC
  5
1BBA
102
{ACAD_REACTORS
330
1BAA
102
}
330
1BAA
100
AcDbDimAssoc
330
1BA9
 90
        3
 70
     0
 71
     0
  1
AcDbOsnapPointRef
 72
     6
331
1BA7
 73
     2
 91
        0
 40
0.3333333333333353
 10
0.0
 20
0.0
 30
0.0
332
1A19
 74
     2
 92
        0
 75
     0
  1
AcDbOsnapPointRef
 72
    13
331
1BA7
 73
     2
 91
        0
 40
0.0
 10
0.0
 20
0.0
 30
2.000000000000000E+50
 75
     0
  0
DICTIONARY
  5
1BAB
102
{ACAD_REACTORS
330
1BAA
102
}
330
1BAA
100
AcDbDictionary
281
     1
  3
ACDB_ANNOTATIONSCALES
350
1BAC
  0
DIMASSOC
  5
1BCA
102
{ACAD_REACTORS
330
1BBC
102
}
330
1BBC
100
AcDbDimAssoc
330
1BBB
 90
        2
 70
     0
 71
     0
  1
AcDbOsnapPointRef
 72
     1
331
1BA7
 73
     2
 91
        0
 40
1.0
 10
0.0
 20
0.0
 30
2.000000000000000E+50
 75
     0
  0
DICTIONARY
  5
1BBD
102
{ACAD_REACTORS
330
1BBC
102
}
330
1BBC
100
AcDbDictionary
281
     1
  3
ACDB_ANNOTATIONSCALES
350
1BBE
  0
DIMASSOC
  5
1BDC
102
{ACAD_REACTORS
330
1BCC
102
}
330
1BCC
100
AcDbDimAssoc
330
1BCB
 90
        3
 70
     0
 71
     0
  1
AcDbOsnapPointRef
 72
    13
331
19C1
 73
     2
 91
        0
 40
0.0
 10
0.0
 20
0.0
 30
2.000000000000000E+50
 75
     0
  1
AcDbOsnapPointRef
 72
    13
331
19BE
 73
     2
 91
        0
 40
0.0
 10
0.0
 20
0.0
 30
2.000000000000000E+50
 75
     0
  0
DICTIONARY
  5
1BCD
102
{ACAD_REACTORS
330
1BCC
102
}
330
1BCC
100
AcDbDictionary
281
     1
  3
ACDB_ANNOTATIONSCALES
350
1BCE
  0
DIMASSOC
  5
1BEF
102
{ACAD_REACTORS
330
1BDF
102
}
330
1BDF
100
AcDbDimAssoc
330
1BDE
 90
        3
 70
     0
 71
     0
  1
AcDbOsnapPointRef
 72
     1
331
19DA
 73
     2
 91
        0
 40
1.0
 10
0.0
 20
0.0
 30
2.000000000000000E+50
 75
     0
  1
AcDbOsnapPointRef
 72
     1
331
1A08
 73
     2
 91
        0
 40
0.9999999999999998
 10
0.0
 20
0.0
 30
2.000000000000000E+50
 75
     0
  0
DICTIONARY
  5
1BE0
102
{ACAD_REACTORS
330
1BDF
102
}
330
1BDF
100
AcDbDictionary
281
     1
  3
ACDB_ANNOTATIONSCALES
350
1BE1
  0
DIMASSOC
  5
1C03
102
{ACAD_REACTORS
330
1BF1
102
}
330
1BF1
100
AcDbDimAssoc
330
1BF0
 90
        3
 70
     0
 71
     0
  1
AcDbOsnapPointRef
 72
     1
331
19DA
 73
     2
 91
        0
 40
1.0
 10
0.0
 20
0.0
 30
2.000000000000000E+50
 75
     0
  1
AcDbOsnapPointRef
 72
    13
331
19DA
 73
     2
 91
        0
 40
0.0
 10
0.0
 20
0.0
 30
2.000000000000000E+50
 75
     0
  0
DICTIONARY
  5
1BF2
102
{ACAD_REACTORS
330
1BF1
102
}
330
1BF1
100
AcDbDictionary
281
     1
  3
ACDB_ANNOTATIONSCALES
350
1BF3
  0
DIMASSOC
  5
1C2B
102
{ACAD_REACTORS
330
1C1B
102
}
330
1C1B
100
AcDbDimAssoc
330
1C1A
 90
        3
 70
     0
 71
     0
  1
AcDbOsnapPointRef
 72
     1
331
19D9
 73
     2
 91
        0
 40
1.0
 10
0.0
 20
0.0
 30
2.000000000000000E+50
 75
     0
  1
AcDbOsnapPointRef
 72
    13
331
19D9
 73
     2
 91
        0
 40
0.0
 10
0.0
 20
0.0
 30
2.000000000000000E+50
 75
     0
  0
DICTIONARY
  5
1C1C
102
{ACAD_REACTORS
330
1C1B
102
}
330
1C1B
100
AcDbDictionary
281
     1
  3
ACDB_ANNOTATIONSCALES
350
1C1D
  0
DIMASSOC
  5
1C3F
102
{ACAD_REACTORS
330
1C2D
102
}
330
1C2D
100
AcDbDimAssoc
330
1C2C
 90
        3
 70
     0
 71
     0
  1
AcDbOsnapPointRef
 72
     1
331
19D8
 73
     2
 91
        0
 40
1.0
 10
0.0
 20
0.0
 30
2.000000000000000E+50
 75
     0
  1
AcDbOsnapPointRef
 72
    13
331
19D8
 73
     2
 91
        0
 40
0.0
 10
0.0
 20
0.0
 30
2.000000000000000E+50
 75
     0
  0
DICTIONARY
  5
1C2E
102
{ACAD_REACTORS
330
1C2D
102
}
330
1C2D
100
AcDbDictionary
281
     1
  3
ACDB_ANNOTATIONSCALES
350
1C2F
  0
DIMASSOC
  5
1C51
102
{ACAD_REACTORS
330
1C41
102
}
330
1C41
100
AcDbDimAssoc
330
1C40
 90
        3
 70
     0
 71
     0
  1
AcDbOsnapPointRef
 72
    13
331
19D8
 73
     2
 91
        0
 40
0.0
 10
0.0
 20
0.0
 30
2.000000000000000E+50
 75
     0
  1
AcDbOsnapPointRef
 72
    13
331
19D6
 73
     2
 91
        0
 40
0.0
 10
0.0
 20
0.0
 30
2.000000000000000E+50
 75
     0
  0
DICTIONARY
  5
1C42
102
{ACAD_REACTORS
330
1C41
102
}
330
1C41
100
AcDbDictionary
281
     1
  3
ACDB_ANNOTATIONSCALES
350
1C43
  0
DIMASSOC
  5
1C8C
102
{ACAD_REACTORS
330
1C7C
102
}
330
1C7C
100
AcDbDimAssoc
330
1C7B
 90
        3
 70
     0
 71
     0
  1
AcDbOsnapPointRef
 72
    13
331
19D2
 73
     2
 91
        0
 40
0.0
 10
0.0
 20
0.0
 30
2.000000000000000E+50
 75
     0
  1
AcDbOsnapPointRef
 72
     1
331
19D5
 73
     2
 91
        0
 40
1.0
 10
0.0
 20
0.0
 30
2.000000000000000E+50
 75
     0
  0
DICTIONARY
  5
1C7D
102
{ACAD_REACTORS
330
1C7C
102
}
330
1C7C
100
AcDbDictionary
281
     1
  3
ACDB_ANNOTATIONSCALES
350
1C7E
  0
DIMASSOC
  5
1C9E
102
{ACAD_REACTORS
330
1C8E
102
}
330
1C8E
100
AcDbDimAssoc
330
1C8D
 90
        3
 70
     0
 71
     0
  1
AcDbOsnapPointRef
 72
    13
331
19D2
 73
     2
 91
        0
 40
0.0
 10
0.0
 20
0.0
 30
2.000000000000000E+50
 75
     0
  1
AcDbOsnapPointRef
 72
     1
331
19D1
 73
     2
 91
        0
 40
1.0
 10
0.0
 20
0.0
 30
2.000000000000000E+50
 75
     0
  0
DICTIONARY
  5
1C8F
102
{ACAD_REACTORS
330
1C8E
102
}
330
1C8E
100
AcDbDictionary
281
     1
  3
ACDB_ANNOTATIONSCALES
350
1C90
  0
DIMASSOC
  5
1CB0
102
{ACAD_REACTORS
330
1CA0
102
}
330
1CA0
100
AcDbDimAssoc
330
1C9F
 90
        3
 70
     0
 71
     0
  1
AcDbOsnapPointRef
 72
     1
331
19D1
 73
     2
 91
        0
 40
1.0
 10
0.0
 20
0.0
 30
2.000000000000000E+50
 75
     0
  1
AcDbOsnapPointRef
 72
    13
331
19D5
 73
     2
 91
        0
 40
0.0
 10
0.0
 20
0.0
 30
2.000000000000000E+50
 75
     0
  0
DICTIONARY
  5
1CA1
102
{ACAD_REACTORS
330
1CA0
102
}
330
1CA0
100
AcDbDictionary
281
     1
  3
ACDB_ANNOTATIONSCALES
350
1CA2
  0
DIMASSOC
  5
1D17
102
{ACAD_REACTORS
330
1D09
102
}
330
1D09
100
AcDbDimAssoc
330
1D08
 90
        3
 70
     0
 71
     0
  1
AcDbOsnapPointRef
 72
     6
331
1D07
 73
     2
 91
        0
 40
0.6666666666666666
 10
0.0
 20
0.0
 30
0.0
332
19D9
 74
     2
 92
        0
 75
     0
  1
AcDbOsnapPointRef
 72
    13
331
1D07
 73
     2
 91
        0
 40
0.0
 10
0.0
 20
0.0
 30
2.000000000000000E+50
 75
     0
  0
DICTIONARY
  5
1D0A
102
{ACAD_REACTORS
330
1D09
102
}
330
1D09
100
AcDbDictionary
281
     1
  3
ACDB_ANNOTATIONSCALES
350
1D0B
  0
DIMASSOC
  5
1D29
102
{ACAD_REACTORS
330
1D19
102
}
330
1D19
100
AcDbDimAssoc
330
1D18
 90
        2
 70
     0
 71
     0
  1
AcDbOsnapPointRef
 72
     1
331
1D07
 73
     2
 91
        0
 40
1.0
 10
0.0
 20
0.0
 30
2.000000000000000E+50
 75
     0
  0
DICTIONARY
  5
1D1A
102
{ACAD_REACTORS
330
1D19
102
}
330
1D19
100
AcDbDictionary
281
     1
  3
ACDB_ANNOTATIONSCALES
350
1D1B
  0
DIMASSOC
  5
1D3B
102
{ACAD_REACTORS
330
1D2B
102
}
330
1D2B
100
AcDbDimAssoc
330
1D2A
 90
        3
 70
     0
 71
     0
  1
AcDbOsnapPointRef
 72
    13
331
19C1
 73
     2
 91
        0
 40
0.0
 10
0.0
 20
0.0
 30
2.000000000000000E+50
 75
     0
  1
AcDbOsnapPointRef
 72
    13
331
19C0
 73
     2
 91
        0
 40
0.0
 10
0.0
 20
0.0
 30
2.000000000000000E+50
 75
     0
  0
DICTIONARY
  5
1D2C
102
{ACAD_REACTORS
330
1D2B
102
}
330
1D2B
100
AcDbDictionary
281
     1
  3
ACDB_ANNOTATIONSCALES
350
1D2D
  0
DIMASSOC
  5
1D4E
102
{ACAD_REACTORS
330
1D3E
102
}
330
1D3E
100
AcDbDimAssoc
330
1D3D
 90
        3
 70
     0
 71
     0
  1
AcDbOsnapPointRef
 72
    13
331
1A26
 73
     2
 91
        0
 40
0.0
 10
0.0
 20
0.0
 30
2.000000000000000E+50
 75
     0
  1
AcDbOsnapPointRef
 72
    13
331
1A16
 73
     2
 91
        0
 40
0.0
 10
0.0
 20
0.0
 30
2.000000000000000E+50
 75
     0
  0
DICTIONARY
  5
1D3F
102
{ACAD_REACTORS
330
1D3E
102
}
330
1D3E
100
AcDbDictionary
281
     1
  3
ACDB_ANNOTATIONSCALES
350
1D40
  0
DIMASSOC
  5
1D6B
102
{ACAD_REACTORS
330
1D59
102
}
330
1D59
100
AcDbDimAssoc
330
1D58
 90
        3
 70
     0
 71
     0
  1
AcDbOsnapPointRef
 72
    13
331
1A26
 73
     2
 91
        0
 40
0.0
 10
0.0
 20
0.0
 30
2.000000000000000E+50
 75
     0
  1
AcDbOsnapPointRef
 72
     1
331
1A26
 73
     2
 91
        0
 40
1.0
 10
0.0
 20
0.0
 30
2.000000000000000E+50
 75
     0
  0
DICTIONARY
  5
1D5A
102
{ACAD_REACTORS
330
1D59
102
}
330
1D59
100
AcDbDictionary
281
     1
  3
ACDB_ANNOTATIONSCALES
350
1D5B
  0
DIMASSOC
  5
1D7D
102
{ACAD_REACTORS
330
1D6D
102
}
330
1D6D
100
AcDbDimAssoc
330
1D6C
 90
        3
 70
     0
 71
     0
  1
AcDbOsnapPointRef
 72
    13
331
1A19
 73
     2
 91
        0
 40
0.0
 10
0.0
 20
0.0
 30
2.000000000000000E+50
 75
     0
  1
AcDbOsnapPointRef
 72
     1
331
1A19
 73
     2
 91
        0
 40
1.0
 10
0.0
 20
0.0
 30
2.000000000000000E+50
 75
     0
  0
DICTIONARY
  5
1D6E
102
{ACAD_REACTORS
330
1D6D
102
}
330
1D6D
100
AcDbDictionary
281
     1
  3
ACDB_ANNOTATIONSCALES
350
1D6F
  0
DIMASSOC
  5
1D91
102
{ACAD_REACTORS
330
1D7F
102
}
330
1D7F
100
AcDbDimAssoc
330
1D7E
 90
        3
 70
     0
 71
     0
  1
AcDbOsnapPointRef
 72
     1
331
1A27
 73
     2
 91
        0
 40
1.0
 10
0.0
 20
0.0
 30
2.000000000000000E+50
 75
     0
  1
AcDbOsnapPointRef
 72
    13
331
1A27
 73
     2
 91
        0
 40
0.0
 10
0.0
 20
0.0
 30
2.000000000000000E+50
 75
     0
  0
DICTIONARY
  5
1D80
102
{ACAD_REACTORS
330
1D7F
102
}
330
1D7F
100
AcDbDictionary
281
     1
  3
ACDB_ANNOTATIONSCALES
350
1D81
  0
DIMASSOC
  5
1DA3
102
{ACAD_REACTORS
330
1D93
102
}
330
1D93
100
AcDbDimAssoc
330
1D92
 90
        3
 70
     0
 71
     0
  1
AcDbOsnapPointRef
 72
    13
331
1A27
 73
     2
 91
        0
 40
0.0
 10
0.0
 20
0.0
 30
2.000000000000000E+50
 75
     0
  1
AcDbOsnapPointRef
 72
     1
331
1A16
 73
     2
 91
        0
 40
1.0
 10
0.0
 20
0.0
 30
2.000000000000000E+50
 75
     0
  0
DICTIONARY
  5
1D94
102
{ACAD_REACTORS
330
1D93
102
}
330
1D93
100
AcDbDictionary
281
     1
  3
ACDB_ANNOTATIONSCALES
350
1D95
  0
DICTIONARY
  5
1FAE
102
{ACAD_REACTORS
330
1FAD
102
}
330
1FAD
100
AcDbDictionary
281
     1
  3
ACDB_ANNOTATIONSCALES
350
1FAF
  0
DICTIONARY
  5
1FB4
102
{ACAD_REACTORS
330
1FB3
102
}
330
1FB3
100
AcDbDictionary
281
     1
  3
ACDB_ANNOTATIONSCALES
350
1FB5
  0
DICTIONARY
  5
1FBA
102
{ACAD_REACTORS
330
1FB9
102
}
330
1FB9
100
AcDbDictionary
281
     1
  3
ACDB_ANNOTATIONSCALES
350
1FBB
  0
DICTIONARY
  5
1FC1
102
{ACAD_REACTORS
330
1FC0
102
}
330
1FC0
100
AcDbDictionary
281
     1
  3
ACDB_ANNOTATIONSCALES
350
1FC2
  0
DICTIONARY
  5
1FC6
102
{ACAD_REACTORS
330
1FC5
102
}
330
1FC5
100
AcDbDictionary
281
     1
  3
ACDB_ANNOTATIONSCALES
350
1FC7
  0
DICTIONARY
  5
1FCB
102
{ACAD_REACTORS
330
1FCA
102
}
330
1FCA
100
AcDbDictionary
281
     1
  3
ACDB_ANNOTATIONSCALES
350
1FCC
  0
DICTIONARY
  5
1FE1
102
{ACAD_REACTORS
330
1FE0
102
}
330
1FE0
100
AcDbDictionary
281
     1
  3
ACDB_ANNOTATIONSCALES
350
1FE2
  0
DICTIONARY
  5
1FE6
102
{ACAD_REACTORS
330
1FE5
102
}
330
1FE5
100
AcDbDictionary
281
     1
  3
ACDB_ANNOTATIONSCALES
350
1FE7
  0
DICTIONARY
  5
1FEF
102
{ACAD_REACTORS
330
1FEE
102
}
330
1FEE
100
AcDbDictionary
281
     1
  3
ACDB_ANNOTATIONSCALES
350
1FF0
  0
DICTIONARY
  5
1FF4
102
{ACAD_REACTORS
330
1FF3
102
}
330
1FF3
100
AcDbDictionary
281
     1
  3
ACDB_ANNOTATIONSCALES
350
1FF5
  0
DICTIONARY
  5
1FF9
102
{ACAD_REACTORS
330
1FF8
102
}
330
1FF8
100
AcDbDictionary
281
     1
  3
ACDB_ANNOTATIONSCALES
350
1FFA
  0
DICTIONARY
  5
1FFE
102
{ACAD_REACTORS
330
1FFD
102
}
330
1FFD
100
AcDbDictionary
281
     1
  3
ACDB_ANNOTATIONSCALES
350
1FFF
  0
DICTIONARY
  5
2004
102
{ACAD_REACTORS
330
2003
102
}
330
2003
100
AcDbDictionary
281
     1
  3
ACDB_ANNOTATIONSCALES
350
2005
  0
DICTIONARY
  5
2009
102
{ACAD_REACTORS
330
2008
102
}
330
2008
100
AcDbDictionary
281
     1
  3
ACDB_ANNOTATIONSCALES
350
200A
  0
DICTIONARY
  5
2013
102
{ACAD_REACTORS
330
2012
102
}
330
2012
100
AcDbDictionary
281
     1
  3
ACDB_ANNOTATIONSCALES
350
2014
  0
DICTIONARY
  5
201A
102
{ACAD_REACTORS
330
2019
102
}
330
2019
100
AcDbDictionary
281
     1
  3
ACDB_ANNOTATIONSCALES
350
201B
  0
DICTIONARY
  5
2022
102
{ACAD_REACTORS
330
2021
102
}
330
2021
100
AcDbDictionary
281
     1
  3
ACDB_ANNOTATIONSCALES
350
2023
  0
DICTIONARY
  5
2028
102
{ACAD_REACTORS
330
2027
102
}
330
2027
100
AcDbDictionary
281
     1
  3
ACDB_ANNOTATIONSCALES
350
2029
  0
DICTIONARY
  5
204C
102
{ACAD_REACTORS
330
204B
102
}
330
204B
100
AcDbDictionary
281
     1
  3
ACDB_ANNOTATIONSCALES
350
204D
  0
DICTIONARY
  5
2051
102
{ACAD_REACTORS
330
2050
102
}
330
2050
100
AcDbDictionary
281
     1
  3
ACDB_ANNOTATIONSCALES
350
2052
  0
DICTIONARY
  5
205B
102
{ACAD_REACTORS
330
205A
102
}
330
205A
100
AcDbDictionary
281
     1
  3
ACDB_ANNOTATIONSCALES
350
205C
  0
DICTIONARY
  5
2061
102
{ACAD_REACTORS
330
2060
102
}
330
2060
100
AcDbDictionary
281
     1
  3
ACDB_ANNOTATIONSCALES
350
2062
  0
XRECORD
  5
1987
102
{ACAD_REACTORS
330
1986
102
}
330
1986
100
AcDbXrecord
280
     1
 90
        1
340
10D
  0
XRECORD
  5
198B
102
{ACAD_REACTORS
330
198A
102
}
330
198A
100
AcDbXrecord
280
     1
 90
        1
340
1C4
  0
ACDBDETAILVIEWSTYLE
  5
21C
102
{ACAD_XDICTIONARY
360
236
102
}
102
{ACAD_REACTORS
330
21B
102
}
330
21B
100
AcDbModelDocViewStyle
 70
     0
  3
Metric50
290
     0
100
AcDbDetailViewStyle
 70
     0
 71
     0
 90
        3
 71
     1
340
11
 62
   256
 40
5.0
340
0
 62
   256
 40
5.0
300

 40
0.0
280
     1
 71
     2
340
16
 90
       25
 62
   256
 71
     3
340
11
 62
   256
 40
5.0
 90
        0
 40
15.0
 90
        1
300
%<\AcVar ViewDetailId>% (%<\AcVar ViewScale \f "%sn">%)
 71
     4
340
16
 90
       25
 62
   256
340
16
 90
       25
 62
   256
280
     0
  0
LAYOUT
  5
197F
102
{ACAD_REACTORS
330
1A
102
}
330
1A
100
AcDbPlotSettings
  1

  2
KONICA MINOLTA C360iSeriesPCL
  4
A4
  6

 40
5.027082920074462
 41
5.027099609375
 42
5.027069091796875
 43
5.027069091796875
 44
209.9733276367187
 45
296.9259948730469
 46
0.0
 47
0.0
 48
0.0
 49
0.0
140
0.0
141
0.0
142
1.0
143
1.0
 70
   688
 72
     1
 73
     0
 74
     5
  7

 75
    16
147
1.0
 76
     0
 77
     2
 78
   300
148
0.0
149
0.0
100
AcDbLayout
  1
20A4tate
 70
     1
 71
     1
 10
-5.027082920074462
 20
-5.027099609375
 11
204.9462447166443
 21
291.8988952636719
 12
0.0
 22
0.0
 32
0.0
 14
-5.001443576905217
 24
-5.013487853573337
 34
-0.0000000349181948
 15
205.0128202094853
 25
292.0181307544226
 35
0.0000000814935746
146
0.0
 13
0.0
 23
0.0
 33
0.0
 16
1.0
 26
0.0
 36
0.0
 17
0.0
 27
1.0
 37
0.0
 76
     0
330
197E
331
1985
1001
ACAD_PSEXT
1000
KONICA MINOLTA C360iSeriesPCL
1000
KONICA MINOLTA C360iSeriesPCL
1000
IP_192.168.100.51
1000

1070
     0
  0
LAYOUT
  5
22
102
{ACAD_XDICTIONARY
360
205
102
}
102
{ACAD_REACTORS
330
1A
102
}
330
1A
100
AcDbPlotSettings
  1

  2
none_device
  4
ISO_A4_(210.00_x_297.00_MM)
  6

 40
7.5
 41
20.0
 42
7.5
 43
20.0
 44
210.0
 45
297.0
 46
11.54999923706054
 47
-13.65000009536743
 48
0.0
 49
0.0
140
0.0
141
0.0
142
1.0
143
8.704084754739808
 70
 11952
 72
     1
 73
     0
 74
     0
  7

 75
     0
147
0.1148885871608098
 76
     0
 77
     2
 78
   300
148
0.0
149
0.0
100
AcDbLayout
  1
Model
 70
     1
 71
     0
 10
0.0
 20
0.0
 11
12.0
 21
9.0
 12
0.0
 22
0.0
 32
0.0
 14
0.0
 24
0.0
 34
0.0
 15
0.0
 25
0.0
 35
0.0
146
0.0
 13
0.0
 23
0.0
 33
0.0
 16
1.0
 26
0.0
 36
0.0
 17
0.0
 27
1.0
 37
0.0
 76
     0
330
1F
331
EA
1001
ACAD_PSEXT
1000
None
1000
None
1000
Not applicable
1000
The layout will not be plotted unless a new plotter configuration name is selected.
1070
     0
  0
MATERIAL
  5
ED
102
{ACAD_XDICTIONARY
360
1F9
102
}
102
{ACAD_REACTORS
330
6A
102
}
330
6A
100
AcDbMaterial
  1
ByBlock
 94
       63
  0
MATERIAL
  5
EC
102
{ACAD_XDICTIONARY
360
1F7
102
}
102
{ACAD_REACTORS
330
6A
102
}
330
6A
100
AcDbMaterial
  1
ByLayer
 94
       63
  0
MATERIAL
  5
EE
102
{ACAD_XDICTIONARY
360
173
102
}
102
{ACAD_REACTORS
330
6A
102
}
330
6A
100
AcDbMaterial
  1
Global
 43
0.0007999999797903
 43
0.0
 43
0.0
 43
0.0
 43
0.0
 43
0.0007999999797903
 43
0.0
 43
0.0
 43
0.0
 43
0.0
 43
1.0
 43
0.0
 43
0.0
 43
0.0
 43
0.0
 43
1.0
 49
0.0007999999797903
 49
0.0
 49
0.0
 49
0.0
 49
0.0
 49
0.0007999999797903
 49
0.0
 49
0.0
 49
0.0
 49
0.0
 49
1.0
 49
0.0
 49
0.0
 49
0.0
 49
0.0
 49
1.0
142
0.0007999999797903
142
0.0
142
0.0
142
0.0
142
0.0
142
0.0007999999797903
142
0.0
142
0.0
142
0.0
142
0.0
142
1.0
142
0.0
142
0.0
142
0.0
142
0.0
142
1.0
144
0.0007999999797903
144
0.0
144
0.0
144
0.0
144
0.0
144
0.0007999999797903
144
0.0
144
0.0
144
0.0
144
0.0
144
1.0
144
0.0
144
0.0
144
0.0
144
0.0
144
1.0
 94
       63
1001
ACAD
1070
    -1
1070
     3
1070
     0
1000

1071
        0
1070
     0
  0
MLEADERSTYLE
  5
13B
102
{ACAD_REACTORS
330
12D
102
}
330
12D
100
AcDbMLeaderStyle
179
     2
170
     2
171
     1
172
     0
 90
        2
 40
0.0
 41
0.0
173
     1
 91
-1056964608
340
14
 92
       -2
290
     1
 42
2.0
291
     1
 43
8.0
  3
Standard
 44
4.0
300

342
11
174
     1
178
     1
175
     1
176
     0
 93
-1056964608
 45
4.0
292
     0
297
     0
 46
4.0
 94
-1056964608
 47
1.0
 49
1.0
140
1.0
293
     1
141
0.0
294
     1
177
     0
142
1.0
295
     1
296
     1
143
3.75
271
     0
272
     9
273
     9
298
     0
  0
MLEADERSTYLE
  5
12E
102
{ACAD_REACTORS
330
12D
102
}
330
12D
100
AcDbMLeaderStyle
179
     2
170
     2
171
     1
172
     0
 90
        2
 40
0.0
 41
0.0
173
     1
 91
-1056964608
340
14
 92
       -2
290
     1
 42
2.0
291
     1
 43
8.0
  3
Standard
 44
4.0
300

342
11
174
     1
178
     1
175
     1
176
     0
 93
-1056964608
 45
4.0
292
     0
297
     0
 46
4.0
 94
-1056964608
 47
1.0
 49
1.0
140
1.0
293
     1
141
0.0
294
     1
177
     0
142
1.0
295
     0
296
     0
143
3.75
271
     0
272
     9
273
     9
298
     0
  0
MLINESTYLE
  5
18
102
{ACAD_REACTORS
330
17
102
}
330
17
100
AcDbMlineStyle
  2
STANDARD
 70
     0
  3

 62
   256
 51
90.0
 52
90.0
 71
     2
 49
0.5
 62
   256
  6
BYLAYER
 49
-0.5
 62
   256
  6
BYLAYER
  0
ACDBPLACEHOLDER
  5
F
102
{ACAD_REACTORS
330
E
102
}
330
E
  0
SCALE
  5
10D
102
{ACAD_REACTORS
330
10C
102
}
330
10C
100
AcDbScale
 70
     0
300
1:1
140
1.0
141
1.0
290
     1
  0
SCALE
  5
1BE
102
{ACAD_REACTORS
330
10C
102
}
330
10C
100
AcDbScale
 70
     0
300
1:2
140
1.0
141
2.0
290
     0
  0
SCALE
  5
1BF
102
{ACAD_REACTORS
330
10C
102
}
330
10C
100
AcDbScale
 70
     0
300
1:4
140
1.0
141
4.0
290
     0
  0
SCALE
  5
1C0
102
{ACAD_REACTORS
330
10C
102
}
330
10C
100
AcDbScale
 70
     0
300
1:5
140
1.0
141
5.0
290
     0
  0
SCALE
  5
1C1
102
{ACAD_REACTORS
330
10C
102
}
330
10C
100
AcDbScale
 70
     0
300
1:8
140
1.0
141
8.0
290
     0
  0
SCALE
  5
1C2
102
{ACAD_REACTORS
330
10C
102
}
330
10C
100
AcDbScale
 70
     0
300
1:10
140
1.0
141
10.0
290
     0
  0
SCALE
  5
1C3
102
{ACAD_REACTORS
330
10C
102
}
330
10C
100
AcDbScale
 70
     0
300
1:16
140
1.0
141
16.0
290
     0
  0
SCALE
  5
1C4
102
{ACAD_REACTORS
330
10C
102
}
330
10C
100
AcDbScale
 70
     0
300
1:20
140
1.0
141
20.0
290
     0
  0
SCALE
  5
1C5
102
{ACAD_REACTORS
330
10C
102
}
330
10C
100
AcDbScale
 70
     0
300
1:30
140
1.0
141
30.0
290
     0
  0
SCALE
  5
1C6
102
{ACAD_REACTORS
330
10C
102
}
330
10C
100
AcDbScale
 70
     0
300
1:40
140
1.0
141
40.0
290
     0
  0
SCALE
  5
1C7
102
{ACAD_REACTORS
330
10C
102
}
330
10C
100
AcDbScale
 70
     0
300
1:50
140
1.0
141
50.0
290
     0
  0
SCALE
  5
1C8
102
{ACAD_REACTORS
330
10C
102
}
330
10C
100
AcDbScale
 70
     0
300
1:100
140
1.0
141
100.0
290
     0
  0
SCALE
  5
1C9
102
{ACAD_REACTORS
330
10C
102
}
330
10C
100
AcDbScale
 70
     0
300
2:1
140
2.0
141
1.0
290
     0
  0
SCALE
  5
1CA
102
{ACAD_REACTORS
330
10C
102
}
330
10C
100
AcDbScale
 70
     0
300
4:1
140
4.0
141
1.0
290
     0
  0
SCALE
  5
1CB
102
{ACAD_REACTORS
330
10C
102
}
330
10C
100
AcDbScale
 70
     0
300
8:1
140
8.0
141
1.0
290
     0
  0
SCALE
  5
1CC
102
{ACAD_REACTORS
330
10C
102
}
330
10C
100
AcDbScale
 70
     0
300
10:1
140
10.0
141
1.0
290
     0
  0
SCALE
  5
1CD
102
{ACAD_REACTORS
330
10C
102
}
330
10C
100
AcDbScale
 70
     0
300
100:1
140
100.0
141
1.0
290
     0
  0
ACDBSECTIONVIEWSTYLE
  5
21A
102
{ACAD_XDICTIONARY
360
234
102
}
102
{ACAD_REACTORS
330
219
102
}
330
219
100
AcDbModelDocViewStyle
 70
     0
  3
Metric50
290
     0
100
AcDbSectionViewStyle
 70
     0
 71
     0
 90
      102
 71
     1
340
11
 62
   256
 40
5.0
340
0
340
0
 62
   256
 40
5.0
300
I, O, Q, S, X, Z
 40
10.0
 90
        0
 40
2.5
 90
        0
 71
     2
340
16
 90
       25
 62
   256
340
16
 90
       50
 62
   256
 40
5.0
 40
2.5
 40
5.0
 71
     3
340
11
 62
   256
 40
5.0
 90
        0
 40
15.0
 90
        1
300
%<\AcVar ViewSectionStartId>%-%<\AcVar ViewSectionEndId>% (%<\AcVar ViewScale \f "%sn">%)
 71
     4
 62
   256
 62
   257
300
ANSI31
 40
1.0
 90
        0
290
     0
290
     0
 90
        6
 40
0.0
 40
1.570796326794896
 40
0.2617993877991494
 40
1.308996938995747
 40
-0.2617993877991494
 40
1.832595714594046
  0
TABLESTYLE
  5
7F
102
{ACAD_XDICTIONARY
360
162
102
}
102
{ACAD_REACTORS
330
7E
102
}
330
7E
100
AcDbTableStyle
280
     0
  3
Standard
 70
     0
 71
     0
 40
1.5
 41
1.5
280
     0
281
     0
  7
Standard
140
4.5
170
     2
 62
     0
 63
     7
283
     0
 90
      512
 91
        0
  1

274
    -2
284
     1
 64
     0
275
    -2
285
     1
 65
     0
276
    -2
286
     1
 66
     0
277
    -2
287
     1
 67
     0
278
    -2
288
     1
 68
     0
279
    -2
289
     1
 69
     0
  7
Standard
140
6.0
170
     5
 62
     0
 63
     7
283
     0
 90
      512
 91
        0
  1

274
    -2
284
     1
 64
     0
275
    -2
285
     1
 65
     0
276
    -2
286
     1
 66
     0
277
    -2
287
     1
 67
     0
278
    -2
288
     1
 68
     0
279
    -2
289
     1
 69
     0
  7
Standard
140
4.5
170
     5
 62
     0
 63
     7
283
     0
 90
      512
 91
        0
  1

274
    -2
284
     1
 64
     0
275
    -2
285
     1
 65
     0
276
    -2
286
     1
 66
     0
277
    -2
287
     1
 67
     0
278
    -2
288
     1
 68
     0
279
    -2
289
     1
 69
     0
  0
VISUALSTYLE
  5
F5
102
{ACAD_REACTORS
330
EF
102
}
330
EF
100
AcDbVisualStyle
  2
2dWireframe
 70
     4
177
     3
291
     0
 70
    58
 90
        0
176
     1
 90
        2
176
     1
 90
        1
176
     1
 90
        0
176
     1
 40
0.6
176
     1
 40
30.0
176
     1
 62
     7
420
 16777215
176
     1
 90
        1
176
     1
 90
        4
176
     1
 62
     7
176
     1
 62
   257
176
     1
 90
        1
176
     1
 90
        1
176
     1
 40
1.0
176
     1
 90
        0
176
     1
 62
   257
176
     1
 40
1.0
176
     1
 90
        1
176
     1
 90
        6
176
     1
 90
        2
176
     1
 62
     7
176
     1
 90
        5
176
     1
 90
        0
176
     1
 90
        0
176
     1
290
     0
176
     1
 90
        1
176
     1
 40
0.0
176
     1
 90
        0
176
     1
290
     1
176
     1
290
     1
176
     1
290
     0
176
     1
290
     0
176
     1
290
     0
176
     1
290
     0
176
     1
290
     0
176
     1
290
     0
176
     1
290
     0
176
     1
 90
       50
176
     1
 40
0.0
176
     1
 40
1.0
176
     1
 90
        0
176
     1
 62
    18
420
        0
176
     1
 90
       50
176
     1
 90
        3
176
     1
 62
     5
420
      255
176
     1
290
     0
176
     1
 90
       50
176
     1
 90
       50
176
     1
 90
       50
176
     1
290
     0
176
     1
 90
       50
176
     1
 62
   256
176
     0
 40
1.0
176
     0
 90
        2
176
     1
  1
strokes_ogs.tif
176
     1
290
     0
176
     1
 40
1.0
176
     1
 40
1.0
176
     1
  0
VISUALSTYLE
  5
F4
102
{ACAD_REACTORS
330
EF
102
}
330
EF
100
AcDbVisualStyle
  2
Basic
 70
     7
177
     3
291
     1
 70
    58
 90
        1
176
     1
 90
        0
176
     1
 90
        1
176
     1
 90
        0
176
     1
 40
0.6
176
     1
 40
30.0
176
     1
 62
     7
420
 16777215
176
     1
 90
        0
176
     1
 90
        4
176
     1
 62
     7
176
     1
 62
   257
176
     1
 90
        1
176
     1
 90
        1
176
     1
 40
1.0
176
     1
 90
        8
176
     1
 62
     7
176
     1
 40
1.0
176
     1
 90
        1
176
     1
 90
        6
176
     1
 90
        2
176
     1
 62
     7
176
     1
 90
        5
176
     1
 90
        0
176
     1
 90
        0
176
     1
290
     0
176
     1
 90
        1
176
     1
 40
0.0
176
     1
 90
        0
176
     1
290
     0
176
     1
290
     1
176
     1
290
     1
176
     1
290
     0
176
     1
290
     0
176
     1
290
     0
176
     1
290
     0
176
     1
290
     0
176
     1
290
     0
176
     1
 90
       50
176
     1
 40
0.0
176
     1
 40
1.0
176
     1
 90
        0
176
     1
 62
    18
420
        0
176
     1
 90
       50
176
     1
 90
        3
176
     1
 62
     5
420
      255
176
     1
290
     0
176
     1
 90
       50
176
     1
 90
       50
176
     1
 90
       50
176
     1
290
     0
176
     1
 90
       50
176
     1
 62
   256
176
     0
 40
1.0
176
     0
 90
        2
176
     1
  1
strokes_ogs.tif
176
     1
290
     0
176
     1
 40
1.0
176
     1
 40
1.0
176
     1
  0
VISUALSTYLE
  5
FB
102
{ACAD_REACTORS
330
EF
102
}
330
EF
100
AcDbVisualStyle
  2
Brighten
 70
    12
177
     3
291
     1
 70
    58
 90
        2
176
     1
 90
        2
176
     1
 90
        1
176
     1
 90
        0
176
     1
 40
0.6
176
     1
 40
30.0
176
     1
 62
     7
420
 16777215
176
     1
 90
        1
176
     1
 90
        4
176
     1
 62
     7
176
     1
 62
   257
176
     1
 90
        1
176
     1
 90
        1
176
     1
 40
1.0
176
     1
 90
        8
176
     1
 62
     7
176
     1
 40
1.0
176
     1
 90
        1
176
     1
 90
        6
176
     1
 90
        2
176
     1
 62
     7
176
     1
 90
        5
176
     1
 90
        0
176
     1
 90
        0
176
     1
290
     0
176
     1
 90
        1
176
     1
 40
50.0
176
     1
 90
        0
176
     1
290
     0
176
     1
290
     1
176
     1
290
     1
176
     1
290
     0
176
     1
290
     0
176
     1
290
     0
176
     1
290
     0
176
     1
290
     0
176
     1
290
     0
176
     1
 90
       50
176
     1
 40
0.0
176
     1
 40
1.0
176
     1
 90
        0
176
     1
 62
    18
420
        0
176
     1
 90
       50
176
     1
 90
        3
176
     1
 62
     5
420
      255
176
     1
290
     0
176
     1
 90
       50
176
     1
 90
       50
176
     1
 90
       50
176
     1
290
     0
176
     1
 90
       50
176
     1
 62
   256
176
     0
 40
1.0
176
     0
 90
        2
176
     1
  1
strokes_ogs.tif
176
     1
290
     0
176
     1
 40
1.0
176
     1
 40
1.0
176
     1
  0
VISUALSTYLE
  5
FF
102
{ACAD_REACTORS
330
EF
102
}
330
EF
100
AcDbVisualStyle
  2
ColorChange
 70
    16
177
     3
291
     1
 70
    58
 90
        2
176
     1
 90
        2
176
     1
 90
        3
176
     1
 90
        0
176
     1
 40
0.6
176
     1
 40
30.0
176
     1
 62
     8
420
  8421504
176
     1
 90
        1
176
     1
 90
        4
176
     1
 62
     7
176
     1
 62
   257
176
     1
 90
        1
176
     1
 90
        1
176
     1
 40
1.0
176
     1
 90
        8
176
     1
 62
     8
420
  8421504
176
     1
 40
1.0
176
     1
 90
        1
176
     1
 90
        6
176
     1
 90
        2
176
     1
 62
     7
176
     1
 90
        5
176
     1
 90
        0
176
     1
 90
        0
176
     1
290
     0
176
     1
 90
        1
176
     1
 40
0.0
176
     1
 90
        0
176
     1
290
     0
176
     1
290
     1
176
     1
290
     1
176
     1
290
     0
176
     1
290
     0
176
     1
290
     0
176
     1
290
     0
176
     1
290
     0
176
     1
290
     0
176
     1
 90
       50
176
     1
 40
0.0
176
     1
 40
1.0
176
     1
 90
        0
176
     1
 62
    18
420
        0
176
     1
 90
       50
176
     1
 90
        3
176
     1
 62
     5
420
      255
176
     1
290
     0
176
     1
 90
       50
176
     1
 90
       50
176
     1
 90
       50
176
     1
290
     0
176
     1
 90
       50
176
     1
 62
   256
176
     0
 40
1.0
176
     0
 90
        2
176
     1
  1
strokes_ogs.tif
176
     1
290
     0
176
     1
 40
1.0
176
     1
 40
1.0
176
     1
  0
VISUALSTYLE
  5
F8
102
{ACAD_REACTORS
330
EF
102
}
330
EF
100
AcDbVisualStyle
  2
Conceptual
 70
     9
177
     3
291
     0
 70
    58
 90
        3
176
     1
 90
        2
176
     1
 90
        1
176
     1
 90
        0
176
     1
 40
0.6
176
     1
 40
30.0
176
     1
 62
     7
420
 16777215
176
     1
 90
        2
176
     1
 90
        2
176
     1
 62
     7
176
     1
 62
   257
176
     1
 90
        1
176
     1
 90
        1
176
     1
 40
40.0
176
     1
 90
        8
176
     1
 62
     7
176
     1
 40
1.0
176
     1
 90
        1
176
     1
 90
        6
176
     1
 90
        2
176
     1
 62
     7
176
     1
 90
        3
176
     1
 90
        0
176
     1
 90
        0
176
     1
290
     0
176
     1
 90
        1
176
     1
 40
0.0
176
     1
 90
        0
176
     1
290
     0
176
     1
290
     1
176
     1
290
     1
176
     1
290
     0
176
     1
290
     0
176
     1
290
     0
176
     1
290
     0
176
     1
290
     0
176
     1
290
     0
176
     1
 90
       50
176
     1
 40
0.0
176
     1
 40
1.0
176
     1
 90
        0
176
     1
 62
    18
420
        0
176
     1
 90
       50
176
     1
 90
        3
176
     1
 62
     5
420
      255
176
     1
290
     0
176
     1
 90
       50
176
     1
 90
       50
176
     1
 90
       50
176
     1
290
     0
176
     1
 90
       50
176
     1
 62
   256
176
     0
 40
1.0
176
     0
 90
        2
176
     1
  1
strokes_ogs.tif
176
     1
290
     0
176
     1
 40
1.0
176
     1
 40
1.0
176
     1
  0
VISUALSTYLE
  5
FA
102
{ACAD_REACTORS
330
EF
102
}
330
EF
100
AcDbVisualStyle
  2
Dim
 70
    11
177
     3
291
     1
 70
    58
 90
        2
176
     1
 90
        2
176
     1
 90
        1
176
     1
 90
        0
176
     1
 40
0.6
176
     1
 40
30.0
176
     1
 62
     7
420
 16777215
176
     1
 90
        1
176
     1
 90
        4
176
     1
 62
     7
176
     1
 62
   257
176
     1
 90
        1
176
     1
 90
        1
176
     1
 40
1.0
176
     1
 90
        8
176
     1
 62
     7
176
     1
 40
1.0
176
     1
 90
        1
176
     1
 90
        6
176
     1
 90
        2
176
     1
 62
     7
176
     1
 90
        5
176
     1
 90
        0
176
     1
 90
        0
176
     1
290
     0
176
     1
 90
        1
176
     1
 40
-50.0
176
     1
 90
        0
176
     1
290
     0
176
     1
290
     1
176
     1
290
     1
176
     1
290
     0
176
     1
290
     0
176
     1
290
     0
176
     1
290
     0
176
     1
290
     0
176
     1
290
     0
176
     1
 90
       50
176
     1
 40
0.0
176
     1
 40
1.0
176
     1
 90
        0
176
     1
 62
    18
420
        0
176
     1
 90
       50
176
     1
 90
        3
176
     1
 62
     5
420
      255
176
     1
290
     0
176
     1
 90
       50
176
     1
 90
       50
176
     1
 90
       50
176
     1
290
     0
176
     1
 90
       50
176
     1
 62
   256
176
     0
 40
1.0
176
     0
 90
        2
176
     1
  1
strokes_ogs.tif
176
     1
290
     0
176
     1
 40
1.0
176
     1
 40
1.0
176
     1
  0
VISUALSTYLE
  5
1E6
102
{ACAD_REACTORS
330
EF
102
}
330
EF
100
AcDbVisualStyle
  2
EdgeColorOff
 70
    22
177
     3
291
     1
 70
    58
 90
        2
176
     0
 90
        2
176
     0
 90
        0
176
     0
 90
        0
176
     0
 40
0.6
176
     0
 40
30.0
176
     0
 62
     7
420
 16777215
176
     0
 90
        1
176
     0
 90
        4
176
     0
 62
     7
176
     0
 62
   257
176
     0
 90
        1
176
     0
 90
        1
176
     0
 40
1.0
176
     0
 90
        8
176
     2
 62
     7
176
     0
 40
1.0
176
     0
 90
        1
176
     0
 90
        6
176
     0
 90
        2
176
     0
 62
     7
176
     0
 90
        5
176
     0
 90
        0
176
     0
 90
        0
176
     0
290
     0
176
     0
 90
        1
176
     0
 40
0.0
176
     0
 90
        0
176
     0
290
     0
176
     1
290
     1
176
     1
290
     1
176
     1
290
     0
176
     1
290
     0
176
     1
290
     0
176
     1
290
     0
176
     1
290
     0
176
     1
290
     0
176
     1
 90
       50
176
     1
 40
0.0
176
     1
 40
1.0
176
     1
 90
        0
176
     1
 62
    18
420
        0
176
     1
 90
       50
176
     1
 90
        3
176
     1
 62
     5
420
      255
176
     1
290
     0
176
     1
 90
       50
176
     1
 90
       50
176
     1
 90
       50
176
     1
290
     0
176
     1
 90
       50
176
     1
 62
   256
176
     0
 40
1.0
176
     0
 90
        2
176
     1
  1
strokes_ogs.tif
176
     1
290
     0
176
     1
 40
1.0
176
     1
 40
1.0
176
     1
  0
VISUALSTYLE
  5
FE
102
{ACAD_REACTORS
330
EF
102
}
330
EF
100
AcDbVisualStyle
  2
Facepattern
 70
    15
177
     3
291
     1
 70
    58
 90
        2
176
     1
 90
        2
176
     1
 90
        1
176
     1
 90
        0
176
     1
 40
0.6
176
     1
 40
30.0
176
     1
 62
     7
420
 16777215
176
     1
 90
        1
176
     1
 90
        4
176
     1
 62
     7
176
     1
 62
   257
176
     1
 90
        1
176
     1
 90
        1
176
     1
 40
1.0
176
     1
 90
        8
176
     1
 62
     7
176
     1
 40
1.0
176
     1
 90
        1
176
     1
 90
        6
176
     1
 90
        2
176
     1
 62
     7
176
     1
 90
        5
176
     1
 90
        0
176
     1
 90
        0
176
     1
290
     0
176
     1
 90
        1
176
     1
 40
0.0
176
     1
 90
        0
176
     1
290
     0
176
     1
290
     1
176
     1
290
     1
176
     1
290
     0
176
     1
290
     0
176
     1
290
     0
176
     1
290
     0
176
     1
290
     0
176
     1
290
     0
176
     1
 90
       50
176
     1
 40
0.0
176
     1
 40
1.0
176
     1
 90
        0
176
     1
 62
    18
420
        0
176
     1
 90
       50
176
     1
 90
        3
176
     1
 62
     5
420
      255
176
     1
290
     0
176
     1
 90
       50
176
     1
 90
       50
176
     1
 90
       50
176
     1
290
     0
176
     1
 90
       50
176
     1
 62
   256
176
     0
 40
1.0
176
     0
 90
        2
176
     1
  1
strokes_ogs.tif
176
     1
290
     0
176
     1
 40
1.0
176
     1
 40
1.0
176
     1
  0
VISUALSTYLE
  5
F0
102
{ACAD_REACTORS
330
EF
102
}
330
EF
100
AcDbVisualStyle
  2
Flat
 70
     0
177
     3
291
     1
 70
    58
 90
        2
176
     1
 90
        1
176
     1
 90
        1
176
     1
 90
        2
176
     1
 40
0.6
176
     1
 40
30.0
176
     1
 62
     7
420
 16777215
176
     1
 90
        0
176
     1
 90
        0
176
     1
 62
     7
176
     1
 62
   257
176
     1
 90
        1
176
     1
 90
        1
176
     1
 40
1.0
176
     1
 90
        8
176
     1
 62
     7
176
     1
 40
1.0
176
     1
 90
        1
176
     1
 90
        6
176
     1
 90
        2
176
     1
 62
     7
176
     1
 90
        5
176
     1
 90
        0
176
     1
 90
        0
176
     1
290
     0
176
     1
 90
       13
176
     1
 40
0.0
176
     1
 90
        0
176
     1
290
     0
176
     1
290
     1
176
     1
290
     1
176
     1
290
     0
176
     1
290
     0
176
     1
290
     0
176
     1
290
     0
176
     1
290
     0
176
     1
290
     0
176
     1
 90
       50
176
     1
 40
0.0
176
     1
 40
1.0
176
     1
 90
        0
176
     1
 62
    18
420
        0
176
     1
 90
       50
176
     1
 90
        3
176
     1
 62
     5
420
      255
176
     1
290
     0
176
     1
 90
       50
176
     1
 90
       50
176
     1
 90
       50
176
     1
290
     0
176
     1
 90
       50
176
     1
 62
   256
176
     0
 40
1.0
176
     0
 90
        2
176
     1
  1
strokes_ogs.tif
176
     1
290
     0
176
     1
 40
1.0
176
     1
 40
1.0
176
     1
  0
VISUALSTYLE
  5
F1
102
{ACAD_REACTORS
330
EF
102
}
330
EF
100
AcDbVisualStyle
  2
FlatWithEdges
 70
     1
177
     3
291
     1
 70
    58
 90
        2
176
     1
 90
        1
176
     1
 90
        1
176
     1
 90
        2
176
     1
 40
0.6
176
     1
 40
30.0
176
     1
 62
     7
420
 16777215
176
     1
 90
        1
176
     1
 90
        0
176
     1
 62
     7
176
     1
 62
   257
176
     1
 90
        1
176
     1
 90
        1
176
     1
 40
1.0
176
     1
 90
        0
176
     1
 62
   257
176
     1
 40
1.0
176
     1
 90
        1
176
     1
 90
        6
176
     1
 90
        2
176
     1
 62
     7
176
     1
 90
        5
176
     1
 90
        0
176
     1
 90
        0
176
     1
290
     0
176
     1
 90
       13
176
     1
 40
0.0
176
     1
 90
        0
176
     1
290
     0
176
     1
290
     1
176
     1
290
     1
176
     1
290
     0
176
     1
290
     0
176
     1
290
     0
176
     1
290
     0
176
     1
290
     0
176
     1
290
     0
176
     1
 90
       50
176
     1
 40
0.0
176
     1
 40
1.0
176
     1
 90
        0
176
     1
 62
    18
420
        0
176
     1
 90
       50
176
     1
 90
        3
176
     1
 62
     5
420
      255
176
     1
290
     0
176
     1
 90
       50
176
     1
 90
       50
176
     1
 90
       50
176
     1
290
     0
176
     1
 90
       50
176
     1
 62
   256
176
     0
 40
1.0
176
     0
 90
        2
176
     1
  1
strokes_ogs.tif
176
     1
290
     0
176
     1
 40
1.0
176
     1
 40
1.0
176
     1
  0
VISUALSTYLE
  5
F2
102
{ACAD_REACTORS
330
EF
102
}
330
EF
100
AcDbVisualStyle
  2
Gouraud
 70
     2
177
     3
291
     1
 70
    58
 90
        2
176
     1
 90
        2
176
     1
 90
        1
176
     1
 90
        2
176
     1
 40
0.6
176
     1
 40
30.0
176
     1
 62
     7
420
 16777215
176
     1
 90
        0
176
     1
 90
        0
176
     1
 62
     7
176
     1
 62
   257
176
     1
 90
        1
176
     1
 90
        1
176
     1
 40
1.0
176
     1
 90
        0
176
     1
 62
     7
176
     1
 40
1.0
176
     1
 90
        1
176
     1
 90
        6
176
     1
 90
        2
176
     1
 62
     7
176
     1
 90
        5
176
     1
 90
        0
176
     1
 90
        0
176
     1
290
     0
176
     1
 90
       13
176
     1
 40
0.0
176
     1
 90
        0
176
     1
290
     0
176
     1
290
     1
176
     1
290
     1
176
     1
290
     0
176
     1
290
     0
176
     1
290
     0
176
     1
290
     0
176
     1
290
     0
176
     1
290
     0
176
     1
 90
       50
176
     1
 40
0.0
176
     1
 40
1.0
176
     1
 90
        0
176
     1
 62
    18
420
        0
176
     1
 90
       50
176
     1
 90
        3
176
     1
 62
     5
420
      255
176
     1
290
     0
176
     1
 90
       50
176
     1
 90
       50
176
     1
 90
       50
176
     1
290
     0
176
     1
 90
       50
176
     1
 62
   256
176
     0
 40
1.0
176
     0
 90
        2
176
     1
  1
strokes_ogs.tif
176
     1
290
     0
176
     1
 40
1.0
176
     1
 40
1.0
176
     1
  0
VISUALSTYLE
  5
F3
102
{ACAD_REACTORS
330
EF
102
}
330
EF
100
AcDbVisualStyle
  2
GouraudWithEdges
 70
     3
177
     3
291
     1
 70
    58
 90
        2
176
     1
 90
        2
176
     1
 90
        1
176
     1
 90
        2
176
     1
 40
0.6
176
     1
 40
30.0
176
     1
 62
     7
420
 16777215
176
     1
 90
        1
176
     1
 90
        0
176
     1
 62
     7
176
     1
 62
   257
176
     1
 90
        1
176
     1
 90
        1
176
     1
 40
1.0
176
     1
 90
        0
176
     1
 62
   257
176
     1
 40
1.0
176
     1
 90
        1
176
     1
 90
        6
176
     1
 90
        2
176
     1
 62
     7
176
     1
 90
        5
176
     1
 90
        0
176
     1
 90
        0
176
     1
290
     0
176
     1
 90
       13
176
     1
 40
0.0
176
     1
 90
        0
176
     1
290
     0
176
     1
290
     1
176
     1
290
     1
176
     1
290
     0
176
     1
290
     0
176
     1
290
     0
176
     1
290
     0
176
     1
290
     0
176
     1
290
     0
176
     1
 90
       50
176
     1
 40
0.0
176
     1
 40
1.0
176
     1
 90
        0
176
     1
 62
    18
420
        0
176
     1
 90
       50
176
     1
 90
        3
176
     1
 62
     5
420
      255
176
     1
290
     0
176
     1
 90
       50
176
     1
 90
       50
176
     1
 90
       50
176
     1
290
     0
176
     1
 90
       50
176
     1
 62
   256
176
     0
 40
1.0
176
     0
 90
        2
176
     1
  1
strokes_ogs.tif
176
     1
290
     0
176
     1
 40
1.0
176
     1
 40
1.0
176
     1
  0
VISUALSTYLE
  5
F7
102
{ACAD_REACTORS
330
EF
102
}
330
EF
100
AcDbVisualStyle
  2
Hidden
 70
     6
177
     3
291
     0
 70
    58
 90
        1
176
     1
 90
        2
176
     1
 90
        2
176
     1
 90
        0
176
     1
 40
0.6
176
     1
 40
30.0
176
     1
 62
     7
420
 16777215
176
     1
 90
        2
176
     1
 90
        2
176
     1
 62
     7
176
     1
 62
   257
176
     1
 90
        2
176
     1
 90
        1
176
     1
 40
40.0
176
     1
 90
        0
176
     1
 62
   257
176
     1
 40
1.0
176
     1
 90
        1
176
     1
 90
        6
176
     1
 90
        2
176
     1
 62
     7
176
     1
 90
        3
176
     1
 90
        0
176
     1
 90
        0
176
     1
290
     0
176
     1
 90
        1
176
     1
 40
0.0
176
     1
 90
        0
176
     1
290
     0
176
     1
290
     1
176
     1
290
     1
176
     1
290
     0
176
     1
290
     0
176
     1
290
     0
176
     1
290
     0
176
     1
290
     0
176
     1
290
     0
176
     1
 90
       50
176
     1
 40
0.0
176
     1
 40
1.0
176
     1
 90
        0
176
     1
 62
    18
420
        0
176
     1
 90
       50
176
     1
 90
        3
176
     1
 62
     5
420
      255
176
     1
290
     0
176
     1
 90
       50
176
     1
 90
       50
176
     1
 90
       50
176
     1
290
     0
176
     1
 90
       50
176
     1
 62
   256
176
     0
 40
1.0
176
     0
 90
        2
176
     1
  1
strokes_ogs.tif
176
     1
290
     0
176
     1
 40
1.0
176
     1
 40
1.0
176
     1
  0
VISUALSTYLE
  5
1E4
102
{ACAD_REACTORS
330
EF
102
}
330
EF
100
AcDbVisualStyle
  2
JitterOff
 70
    20
177
     3
291
     1
 70
    58
 90
        2
176
     0
 90
        2
176
     0
 90
        0
176
     0
 90
        0
176
     0
 40
0.6
176
     0
 40
30.0
176
     0
 62
     7
420
 16777215
176
     0
 90
        1
176
     0
 90
        4
176
     0
 62
     7
176
     0
 62
   257
176
     0
 90
        1
176
     0
 90
        1
176
     0
 40
1.0
176
     0
 90
       10
176
     2
 62
     7
176
     0
 40
1.0
176
     0
 90
        1
176
     0
 90
        6
176
     0
 90
        2
176
     0
 62
     7
176
     0
 90
        5
176
     0
 90
        0
176
     0
 90
        0
176
     0
290
     0
176
     0
 90
        1
176
     0
 40
0.0
176
     0
 90
        0
176
     0
290
     0
176
     1
290
     1
176
     1
290
     1
176
     1
290
     0
176
     1
290
     0
176
     1
290
     0
176
     1
290
     0
176
     1
290
     0
176
     1
290
     0
176
     1
 90
       50
176
     1
 40
0.0
176
     1
 40
1.0
176
     1
 90
        0
176
     1
 62
    18
420
        0
176
     1
 90
       50
176
     1
 90
        3
176
     1
 62
     5
420
      255
176
     1
290
     0
176
     1
 90
       50
176
     1
 90
       50
176
     1
 90
       50
176
     1
290
     0
176
     1
 90
       50
176
     1
 62
   256
176
     0
 40
1.0
176
     0
 90
        2
176
     1
  1
strokes_ogs.tif
176
     1
290
     0
176
     1
 40
1.0
176
     1
 40
1.0
176
     1
  0
VISUALSTYLE
  5
FD
102
{ACAD_REACTORS
330
EF
102
}
330
EF
100
AcDbVisualStyle
  2
Linepattern
 70
    14
177
     3
291
     1
 70
    58
 90
        2
176
     1
 90
        2
176
     1
 90
        1
176
     1
 90
        0
176
     1
 40
0.6
176
     1
 40
30.0
176
     1
 62
     7
420
 16777215
176
     1
 90
        1
176
     1
 90
        4
176
     1
 62
     7
176
     1
 62
   257
176
     1
 90
        7
176
     1
 90
        7
176
     1
 40
1.0
176
     1
 90
        8
176
     1
 62
     7
176
     1
 40
1.0
176
     1
 90
        1
176
     1
 90
        6
176
     1
 90
        2
176
     1
 62
     7
176
     1
 90
        5
176
     1
 90
        0
176
     1
 90
        0
176
     1
290
     0
176
     1
 90
        1
176
     1
 40
0.0
176
     1
 90
        0
176
     1
290
     0
176
     1
290
     1
176
     1
290
     1
176
     1
290
     0
176
     1
290
     0
176
     1
290
     0
176
     1
290
     0
176
     1
290
     0
176
     1
290
     0
176
     1
 90
       50
176
     1
 40
0.0
176
     1
 40
1.0
176
     1
 90
        0
176
     1
 62
    18
420
        0
176
     1
 90
       50
176
     1
 90
        3
176
     1
 62
     5
420
      255
176
     1
290
     0
176
     1
 90
       50
176
     1
 90
       50
176
     1
 90
       50
176
     1
290
     0
176
     1
 90
       50
176
     1
 62
   256
176
     0
 40
1.0
176
     0
 90
        2
176
     1
  1
strokes_ogs.tif
176
     1
290
     0
176
     1
 40
1.0
176
     1
 40
1.0
176
     1
  0
VISUALSTYLE
  5
1E5
102
{ACAD_REACTORS
330
EF
102
}
330
EF
100
AcDbVisualStyle
  2
OverhangOff
 70
    21
177
     3
291
     1
 70
    58
 90
        2
176
     0
 90
        2
176
     0
 90
        0
176
     0
 90
        0
176
     0
 40
0.6
176
     0
 40
30.0
176
     0
 62
     7
420
 16777215
176
     0
 90
        1
176
     0
 90
        4
176
     0
 62
     7
176
     0
 62
   257
176
     0
 90
        1
176
     0
 90
        1
176
     0
 40
1.0
176
     0
 90
        9
176
     2
 62
     7
176
     0
 40
1.0
176
     0
 90
        1
176
     0
 90
        6
176
     0
 90
        2
176
     0
 62
     7
176
     0
 90
        5
176
     0
 90
        0
176
     0
 90
        0
176
     0
290
     0
176
     0
 90
        1
176
     0
 40
0.0
176
     0
 90
        0
176
     0
290
     0
176
     1
290
     1
176
     1
290
     1
176
     1
290
     0
176
     1
290
     0
176
     1
290
     0
176
     1
290
     0
176
     1
290
     0
176
     1
290
     0
176
     1
 90
       50
176
     1
 40
0.0
176
     1
 40
1.0
176
     1
 90
        0
176
     1
 62
    18
420
        0
176
     1
 90
       50
176
     1
 90
        3
176
     1
 62
     5
420
      255
176
     1
290
     0
176
     1
 90
       50
176
     1
 90
       50
176
     1
 90
       50
176
     1
290
     0
176
     1
 90
       50
176
     1
 62
   256
176
     0
 40
1.0
176
     0
 90
        2
176
     1
  1
strokes_ogs.tif
176
     1
290
     0
176
     1
 40
1.0
176
     1
 40
1.0
176
     1
  0
VISUALSTYLE
  5
F9
102
{ACAD_REACTORS
330
EF
102
}
330
EF
100
AcDbVisualStyle
  2
Realistic
 70
     8
177
     3
291
     0
 70
    58
 90
        2
176
     1
 90
        3
176
     1
 90
        0
176
     1
 90
        2
176
     1
 40
0.6
176
     1
 40
30.0
176
     1
 62
     7
420
 16777215
176
     1
 90
        0
176
     1
 90
        0
176
     1
 62
     7
176
     1
 62
   257
176
     1
 90
        1
176
     1
 90
        1
176
     1
 40
1.0
176
     1
 90
        8
176
     1
 62
   257
176
     1
 40
1.0
176
     1
 90
        1
176
     1
 90
        6
176
     1
 90
        2
176
     1
 62
     7
176
     1
 90
        3
176
     1
 90
        0
176
     1
 90
        0
176
     1
290
     0
176
     1
 90
       13
176
     1
 40
0.0
176
     1
 90
        0
176
     1
290
     0
176
     1
290
     1
176
     1
290
     1
176
     1
290
     0
176
     1
290
     0
176
     1
290
     0
176
     1
290
     0
176
     1
290
     0
176
     1
290
     0
176
     1
 90
       50
176
     1
 40
0.0
176
     1
 40
1.0
176
     1
 90
        0
176
     1
 62
    18
420
        0
176
     1
 90
       50
176
     1
 90
        3
176
     1
 62
     5
420
      255
176
     1
290
     0
176
     1
 90
       50
176
     1
 90
       50
176
     1
 90
       50
176
     1
290
     0
176
     1
 90
       50
176
     1
 62
   256
176
     0
 40
1.0
176
     0
 90
        2
176
     1
  1
strokes_ogs.tif
176
     1
290
     0
176
     1
 40
1.0
176
     1
 40
1.0
176
     1
  0
VISUALSTYLE
  5
1F3
102
{ACAD_REACTORS
330
EF
102
}
330
EF
100
AcDbVisualStyle
  2
Shaded
 70
    27
177
     3
291
     0
 70
    58
 90
        2
176
     1
 90
        2
176
     1
 90
        1
176
     1
 90
        2
176
     1
 40
0.6
176
     1
 40
30.0
176
     1
 62
     7
420
 16777215
176
     1
 90
        0
176
     1
 90
        4
176
     1
 62
     7
176
     1
 62
   257
176
     1
 90
        1
176
     1
 90
        1
176
     1
 40
1.0
176
     1
 90
        8
176
     1
 62
   257
176
     1
 40
1.0
176
     1
 90
        1
176
     1
 90
        6
176
     1
 90
        2
176
     1
 62
     8
420
  7895160
176
     1
 90
        3
176
     1
 90
        0
176
     1
 90
        0
176
     1
290
     0
176
     1
 90
        5
176
     1
 40
0.0
176
     1
 90
        0
176
     1
290
     0
176
     1
290
     1
176
     1
290
     1
176
     1
290
     0
176
     1
290
     0
176
     1
290
     0
176
     1
290
     0
176
     1
290
     0
176
     1
290
     0
176
     1
 90
       50
176
     1
 40
0.0
176
     1
 40
1.0
176
     1
 90
        0
176
     1
 62
    18
420
        0
176
     1
 90
       50
176
     1
 90
        3
176
     1
 62
     5
420
      255
176
     1
290
     0
176
     1
 90
       50
176
     1
 90
       50
176
     1
 90
       50
176
     1
290
     0
176
     1
 90
       50
176
     1
 62
   256
176
     0
 40
1.0
176
     0
 90
        2
176
     1
  1
strokes_ogs.tif
176
     1
290
     0
176
     1
 40
1.0
176
     1
 40
1.0
176
     1
  0
VISUALSTYLE
  5
1F2
102
{ACAD_REACTORS
330
EF
102
}
330
EF
100
AcDbVisualStyle
  2
Shaded with edges
 70
    26
177
     3
291
     0
 70
    58
 90
        2
176
     1
 90
        2
176
     1
 90
        1
176
     1
 90
        2
176
     1
 40
0.6
176
     1
 40
30.0
176
     1
 62
     7
420
 16777215
176
     1
 90
        1
176
     1
 90
       10
176
     1
 62
     7
176
     1
 62
   257
176
     1
 90
        2
176
     1
 90
        1
176
     1
 40
1.0
176
     1
 90
        8
176
     1
 62
   257
176
     1
 40
1.0
176
     1
 90
        1
176
     1
 90
        6
176
     1
 90
        2
176
     1
 62
     7
176
     1
 90
        3
176
     1
 90
        0
176
     1
 90
        0
176
     1
290
     0
176
     1
 90
        5
176
     1
 40
0.0
176
     1
 90
        0
176
     1
290
     0
176
     1
290
     1
176
     1
290
     1
176
     1
290
     0
176
     1
290
     0
176
     1
290
     0
176
     1
290
     0
176
     1
290
     0
176
     1
290
     0
176
     1
 90
       50
176
     1
 40
0.0
176
     1
 40
1.0
176
     1
 90
        0
176
     1
 62
    18
420
        0
176
     1
 90
       50
176
     1
 90
        3
176
     1
 62
     5
420
      255
176
     1
290
     0
176
     1
 90
       50
176
     1
 90
       50
176
     1
 90
       50
176
     1
290
     0
176
     1
 90
       50
176
     1
 62
   256
176
     0
 40
1.0
176
     0
 90
        2
176
     1
  1
strokes_ogs.tif
176
     1
290
     0
176
     1
 40
1.0
176
     1
 40
1.0
176
     1
  0
VISUALSTYLE
  5
1EF
102
{ACAD_REACTORS
330
EF
102
}
330
EF
100
AcDbVisualStyle
  2
Shades of Gray
 70
    23
177
     3
291
     0
 70
    58
 90
        2
176
     1
 90
        2
176
     1
 90
        3
176
     1
 90
        0
176
     1
 40
0.6
176
     1
 40
30.0
176
     1
 62
     7
420
 16777215
176
     1
 90
        2
176
     1
 90
        2
176
     1
 62
     7
176
     1
 62
     7
176
     1
 90
        1
176
     1
 90
        1
176
     1
 40
40.0
176
     1
 90
        8
176
     1
 62
     7
176
     1
 40
1.0
176
     1
 90
        1
176
     1
 90
        6
176
     1
 90
        2
176
     1
 62
     7
176
     1
 90
        3
176
     1
 90
        0
176
     1
 90
        0
176
     1
290
     0
176
     1
 90
        1
176
     1
 40
0.0
176
     1
 90
        0
176
     1
290
     0
176
     1
290
     1
176
     1
290
     1
176
     1
290
     0
176
     1
290
     0
176
     1
290
     0
176
     1
290
     0
176
     1
290
     0
176
     1
290
     0
176
     1
 90
       50
176
     1
 40
0.0
176
     1
 40
1.0
176
     1
 90
        0
176
     1
 62
    18
420
        0
176
     1
 90
       50
176
     1
 90
        3
176
     1
 62
     5
420
      255
176
     1
290
     0
176
     1
 90
       50
176
     1
 90
       50
176
     1
 90
       50
176
     1
290
     0
176
     1
 90
       50
176
     1
 62
   256
176
     0
 40
1.0
176
     0
 90
        2
176
     1
  1
strokes_ogs.tif
176
     1
290
     0
176
     1
 40
1.0
176
     1
 40
1.0
176
     1
  0
VISUALSTYLE
  5
1F0
102
{ACAD_REACTORS
330
EF
102
}
330
EF
100
AcDbVisualStyle
  2
Sketchy
 70
    24
177
     3
291
     0
 70
    58
 90
        1
176
     1
 90
        2
176
     1
 90
        2
176
     1
 90
        0
176
     1
 40
0.6
176
     1
 40
30.0
176
     1
 62
     7
420
 16777215
176
     1
 90
        2
176
     1
 90
        2
176
     1
 62
     7
176
     1
 62
     7
176
     1
 90
        1
176
     1
 90
        1
176
     1
 40
40.0
176
     1
 90
       11
176
     1
 62
     7
176
     1
 40
1.0
176
     1
 90
        1
176
     1
 90
        6
176
     1
 90
        2
176
     1
 62
     7
176
     1
 90
        6
176
     1
 90
        0
176
     1
 90
        0
176
     1
290
     0
176
     1
 90
        1
176
     1
 40
0.0
176
     1
 90
        0
176
     1
290
     0
176
     1
290
     1
176
     1
290
     1
176
     1
290
     0
176
     1
290
     0
176
     1
290
     0
176
     1
290
     0
176
     1
290
     0
176
     1
290
     0
176
     1
 90
       50
176
     1
 40
0.0
176
     1
 40
1.0
176
     1
 90
        0
176
     1
 62
    18
420
        0
176
     1
 90
       50
176
     1
 90
        3
176
     1
 62
     5
420
      255
176
     1
290
     0
176
     1
 90
       50
176
     1
 90
       50
176
     1
 90
       50
176
     1
290
     0
176
     1
 90
       50
176
     1
 62
   256
176
     0
 40
1.0
176
     0
 90
        2
176
     1
  1
strokes_ogs.tif
176
     1
290
     0
176
     1
 40
1.0
176
     1
 40
1.0
176
     1
  0
VISUALSTYLE
  5
FC
102
{ACAD_REACTORS
330
EF
102
}
330
EF
100
AcDbVisualStyle
  2
Thicken
 70
    13
177
     3
291
     1
 70
    58
 90
        2
176
     1
 90
        2
176
     1
 90
        1
176
     1
 90
        0
176
     1
 40
0.6
176
     1
 40
30.0
176
     1
 62
     7
420
 16777215
176
     1
 90
        1
176
     1
 90
        4
176
     1
 62
     7
176
     1
 62
   257
176
     1
 90
        1
176
     1
 90
        1
176
     1
 40
1.0
176
     1
 90
       12
176
     1
 62
     7
176
     1
 40
1.0
176
     1
 90
        1
176
     1
 90
        6
176
     1
 90
        2
176
     1
 62
     7
176
     1
 90
        5
176
     1
 90
        0
176
     1
 90
        0
176
     1
290
     0
176
     1
 90
        1
176
     1
 40
0.0
176
     1
 90
        0
176
     1
290
     0
176
     1
290
     1
176
     1
290
     1
176
     1
290
     0
176
     1
290
     0
176
     1
290
     0
176
     1
290
     0
176
     1
290
     0
176
     1
290
     0
176
     1
 90
       50
176
     1
 40
0.0
176
     1
 40
1.0
176
     1
 90
        0
176
     1
 62
    18
420
        0
176
     1
 90
       50
176
     1
 90
        3
176
     1
 62
     5
420
      255
176
     1
290
     0
176
     1
 90
       50
176
     1
 90
       50
176
     1
 90
       50
176
     1
290
     0
176
     1
 90
       50
176
     1
 62
   256
176
     0
 40
1.0
176
     0
 90
        2
176
     1
  1
strokes_ogs.tif
176
     1
290
     0
176
     1
 40
1.0
176
     1
 40
1.0
176
     1
  0
VISUALSTYLE
  5
F6
102
{ACAD_REACTORS
330
EF
102
}
330
EF
100
AcDbVisualStyle
  2
Wireframe
 70
     5
177
     3
291
     0
 70
    58
 90
        0
176
     1
 90
        2
176
     1
 90
        0
176
     1
 90
        0
176
     1
 40
0.6
176
     1
 40
30.0
176
     1
 62
     7
420
 16777215
176
     1
 90
        1
176
     1
 90
        4
176
     1
 62
     7
176
     1
 62
   257
176
     1
 90
        1
176
     1
 90
        1
176
     1
 40
1.0
176
     1
 90
        0
176
     1
 62
   257
176
     1
 40
1.0
176
     1
 90
        1
176
     1
 90
        6
176
     1
 90
        2
176
     1
 62
     7
176
     1
 90
        3
176
     1
 90
        0
176
     1
 90
        0
176
     1
290
     0
176
     1
 90
        1
176
     1
 40
0.0
176
     1
 90
        0
176
     1
290
     0
176
     1
290
     1
176
     1
290
     1
176
     1
290
     0
176
     1
290
     0
176
     1
290
     0
176
     1
290
     0
176
     1
290
     0
176
     1
290
     0
176
     1
 90
       50
176
     1
 40
0.0
176
     1
 40
1.0
176
     1
 90
        0
176
     1
 62
    18
420
        0
176
     1
 90
       50
176
     1
 90
        3
176
     1
 62
     5
420
      255
176
     1
290
     0
176
     1
 90
       50
176
     1
 90
       50
176
     1
 90
       50
176
     1
290
     0
176
     1
 90
       50
176
     1
 62
   256
176
     0
 40
1.0
176
     0
 90
        2
176
     1
  1
strokes_ogs.tif
176
     1
290
     0
176
     1
 40
1.0
176
     1
 40
1.0
176
     1
  0
VISUALSTYLE
  5
1F1
102
{ACAD_REACTORS
330
EF
102
}
330
EF
100
AcDbVisualStyle
  2
X-Ray
 70
    25
177
     3
291
     0
 70
    58
 90
        2
176
     1
 90
        2
176
     1
 90
        1
176
     1
 90
        1
176
     1
 40
0.5
176
     1
 40
30.0
176
     1
 62
     7
420
 16777215
176
     1
 90
        1
176
     1
 90
        0
176
     1
 62
     7
176
     1
 62
   257
176
     1
 90
        1
176
     1
 90
        1
176
     1
 40
1.0
176
     1
 90
        8
176
     1
 62
     7
176
     1
 40
1.0
176
     1
 90
        1
176
     1
 90
        6
176
     1
 90
        2
176
     1
 62
     7
176
     1
 90
        3
176
     1
 90
        0
176
     1
 90
        0
176
     1
290
     0
176
     1
 90
       13
176
     1
 40
0.0
176
     1
 90
        0
176
     1
290
     0
176
     1
290
     1
176
     1
290
     1
176
     1
290
     0
176
     1
290
     0
176
     1
290
     0
176
     1
290
     0
176
     1
290
     0
176
     1
290
     0
176
     1
 90
       50
176
     1
 40
0.0
176
     1
 40
1.0
176
     1
 90
        0
176
     1
 62
    18
420
        0
176
     1
 90
       50
176
     1
 90
        3
176
     1
 62
     5
420
      255
176
     1
290
     0
176
     1
 90
       50
176
     1
 90
       50
176
     1
 90
       50
176
     1
290
     0
176
     1
 90
       50
176
     1
 62
   256
176
     0
 40
1.0
176
     0
 90
        2
176
     1
  1
strokes_ogs.tif
176
     1
290
     0
176
     1
 40
1.0
176
     1
 40
1.0
176
     1
  0
DICTIONARYVAR
  5
146
102
{ACAD_REACTORS
330
5E
102
}
330
5E
100
DictionaryVariables
280
     0
  1
1:20
  0
DICTIONARYVAR
  5
145
102
{ACAD_REACTORS
330
5E
102
}
330
5E
100
DictionaryVariables
280
     0
  1
Annotative
  0
DICTIONARYVAR
  5
84
102
{ACAD_REACTORS
330
5E
102
}
330
5E
100
DictionaryVariables
280
     0
  1
STANDARD
  0
DICTIONARYVAR
  5
227
102
{ACAD_REACTORS
330
5E
102
}
330
5E
100
DictionaryVariables
280
     0
  1
Metric50
  0
DICTIONARYVAR
  5
228
102
{ACAD_REACTORS
330
5E
102
}
330
5E
100
DictionaryVariables
280
     0
  1
Metric50
  0
DICTIONARYVAR
  5
5F
102
{ACAD_REACTORS
330
5E
102
}
330
5E
100
DictionaryVariables
280
     0
  1
2
  0
DICTIONARYVAR
  5
63
102
{ACAD_REACTORS
330
5E
102
}
330
5E
100
DictionaryVariables
280
     0
  1
1
  0
DICTIONARYVAR
  5
1AE
102
{ACAD_REACTORS
330
5E
102
}
330
5E
100
DictionaryVariables
280
     0
  1
0
  0
DICTIONARYVAR
  5
1AF
102
{ACAD_REACTORS
330
5E
102
}
330
5E
100
DictionaryVariables
280
     0
  1
0
  0
DICTIONARYVAR
  5
270
102
{ACAD_REACTORS
330
5E
102
}
330
5E
100
DictionaryVariables
280
     0
  1
左下
  0
DICTIONARY
  5
1920
102
{ACAD_REACTORS
330
191F
102
}
330
191F
100
AcDbDictionary
281
     1
  3
*A1
350
1921
  0
DICTIONARY
  5
1925
102
{ACAD_REACTORS
330
1924
102
}
330
1924
100
AcDbDictionary
281
     1
  3
*A1
350
1926
  0
DICTIONARY
  5
192A
102
{ACAD_REACTORS
330
1929
102
}
330
1929
100
AcDbDictionary
281
     1
  3
*A1
350
192B
  0
DICTIONARY
  5
192F
102
{ACAD_REACTORS
330
192E
102
}
330
192E
100
AcDbDictionary
281
     1
  3
*A1
350
1930
  0
DICTIONARY
  5
1934
102
{ACAD_REACTORS
330
1933
102
}
330
1933
100
AcDbDictionary
281
     1
  3
*A1
350
1935
  0
DICTIONARY
  5
1939
102
{ACAD_REACTORS
330
1938
102
}
330
1938
100
AcDbDictionary
281
     1
  3
*A1
350
193A
  0
DICTIONARY
  5
193E
102
{ACAD_REACTORS
330
193D
102
}
330
193D
100
AcDbDictionary
281
     1
  3
*A1
350
193F
  0
DICTIONARY
  5
1A3A
102
{ACAD_REACTORS
330
1A39
102
}
330
1A39
100
AcDbDictionary
281
     1
  3
*A1
350
1A3B
  0
DICTIONARY
  5
1A56
102
{ACAD_REACTORS
330
1A55
102
}
330
1A55
100
AcDbDictionary
281
     1
  3
*A1
350
1A57
  0
DICTIONARY
  5
1A68
102
{ACAD_REACTORS
330
1A67
102
}
330
1A67
100
AcDbDictionary
281
     1
  3
*A1
350
1A69
  0
DICTIONARY
  5
1A7A
102
{ACAD_REACTORS
330
1A79
102
}
330
1A79
100
AcDbDictionary
281
     1
  3
*A1
350
1A7B
  0
DICTIONARY
  5
1AB4
102
{ACAD_REACTORS
330
1AB3
102
}
330
1AB3
100
AcDbDictionary
281
     1
  3
*A1
350
1AB5
  0
DICTIONARY
  5
1AC6
102
{ACAD_REACTORS
330
1AC5
102
}
330
1AC5
100
AcDbDictionary
281
     1
  3
*A1
350
1AC7
  0
DICTIONARY
  5
1AD8
102
{ACAD_REACTORS
330
1AD7
102
}
330
1AD7
100
AcDbDictionary
281
     1
  3
*A1
350
1AD9
  0
DICTIONARY
  5
1AEA
102
{ACAD_REACTORS
330
1AE9
102
}
330
1AE9
100
AcDbDictionary
281
     1
  3
*A1
350
1AEB
  0
DICTIONARY
  5
1AFC
102
{ACAD_REACTORS
330
1AFB
102
}
330
1AFB
100
AcDbDictionary
281
     1
  3
*A1
350
1AFD
  0
DICTIONARY
  5
1B0E
102
{ACAD_REACTORS
330
1B0D
102
}
330
1B0D
100
AcDbDictionary
281
     1
  3
*A1
350
1B0F
  0
DICTIONARY
  5
1B38
102
{ACAD_REACTORS
330
1B37
102
}
330
1B37
100
AcDbDictionary
281
     1
  3
*A1
350
1B39
  0
DICTIONARY
  5
1B4A
102
{ACAD_REACTORS
330
1B49
102
}
330
1B49
100
AcDbDictionary
281
     1
  3
*A1
350
1B4B
  0
DICTIONARY
  5
1B5E
102
{ACAD_REACTORS
330
1B5D
102
}
330
1B5D
100
AcDbDictionary
281
     1
  3
*A1
350
1B5F
  0
DICTIONARY
  5
1B88
102
{ACAD_REACTORS
330
1B87
102
}
330
1B87
100
AcDbDictionary
281
     1
  3
*A1
350
1B89
  0
DICTIONARY
  5
1B98
102
{ACAD_REACTORS
330
1B97
102
}
330
1B97
100
AcDbDictionary
281
     1
  3
*A1
350
1B99
  0
DICTIONARY
  5
1BAC
102
{ACAD_REACTORS
330
1BAB
102
}
330
1BAB
100
AcDbDictionary
281
     1
  3
*A1
350
1BAD
  0
DICTIONARY
  5
1BBE
102
{ACAD_REACTORS
330
1BBD
102
}
330
1BBD
100
AcDbDictionary
281
     1
  3
*A1
350
1BBF
  0
DICTIONARY
  5
1BCE
102
{ACAD_REACTORS
330
1BCD
102
}
330
1BCD
100
AcDbDictionary
281
     1
  3
*A1
350
1BCF
  0
DICTIONARY
  5
1BE1
102
{ACAD_REACTORS
330
1BE0
102
}
330
1BE0
100
AcDbDictionary
281
     1
  3
*A1
350
1BE2
  0
DICTIONARY
  5
1BF3
102
{ACAD_REACTORS
330
1BF2
102
}
330
1BF2
100
AcDbDictionary
281
     1
  3
*A1
350
1BF4
  0
DICTIONARY
  5
1C1D
102
{ACAD_REACTORS
330
1C1C
102
}
330
1C1C
100
AcDbDictionary
281
     1
  3
*A1
350
1C1E
  0
DICTIONARY
  5
1C2F
102
{ACAD_REACTORS
330
1C2E
102
}
330
1C2E
100
AcDbDictionary
281
     1
  3
*A1
350
1C30
  0
DICTIONARY
  5
1C43
102
{ACAD_REACTORS
330
1C42
102
}
330
1C42
100
AcDbDictionary
281
     1
  3
*A1
350
1C44
  0
DICTIONARY
  5
1C7E
102
{ACAD_REACTORS
330
1C7D
102
}
330
1C7D
100
AcDbDictionary
281
     1
  3
*A1
350
1C7F
  0
DICTIONARY
  5
1C90
102
{ACAD_REACTORS
330
1C8F
102
}
330
1C8F
100
AcDbDictionary
281
     1
  3
*A1
350
1C91
  0
DICTIONARY
  5
1CA2
102
{ACAD_REACTORS
330
1CA1
102
}
330
1CA1
100
AcDbDictionary
281
     1
  3
*A1
350
1CA3
  0
DICTIONARY
  5
1D0B
102
{ACAD_REACTORS
330
1D0A
102
}
330
1D0A
100
AcDbDictionary
281
     1
  3
*A1
350
1D0C
  0
DICTIONARY
  5
1D1B
102
{ACAD_REACTORS
330
1D1A
102
}
330
1D1A
100
AcDbDictionary
281
     1
  3
*A1
350
1D1C
  0
DICTIONARY
  5
1D2D
102
{ACAD_REACTORS
330
1D2C
102
}
330
1D2C
100
AcDbDictionary
281
     1
  3
*A1
350
1D2E
  0
DICTIONARY
  5
1D40
102
{ACAD_REACTORS
330
1D3F
102
}
330
1D3F
100
AcDbDictionary
281
     1
  3
*A1
350
1D41
  0
DICTIONARY
  5
1D5B
102
{ACAD_REACTORS
330
1D5A
102
}
330
1D5A
100
AcDbDictionary
281
     1
  3
*A1
350
1D5C
  0
DICTIONARY
  5
1D6F
102
{ACAD_REACTORS
330
1D6E
102
}
330
1D6E
100
AcDbDictionary
281
     1
  3
*A1
350
1D70
  0
DICTIONARY
  5
1D81
102
{ACAD_REACTORS
330
1D80
102
}
330
1D80
100
AcDbDictionary
281
     1
  3
*A1
350
1D82
  0
DICTIONARY
  5
1D95
102
{ACAD_REACTORS
330
1D94
102
}
330
1D94
100
AcDbDictionary
281
     1
  3
*A1
350
1D96
  0
DICTIONARY
  5
1FAF
102
{ACAD_REACTORS
330
1FAE
102
}
330
1FAE
100
AcDbDictionary
281
     1
  3
*A1
350
1FB0
  0
DICTIONARY
  5
1FB5
102
{ACAD_REACTORS
330
1FB4
102
}
330
1FB4
100
AcDbDictionary
281
     1
  3
*A1
350
1FB6
  0
DICTIONARY
  5
1FBB
102
{ACAD_REACTORS
330
1FBA
102
}
330
1FBA
100
AcDbDictionary
281
     1
  3
*A1
350
1FBC
  0
DICTIONARY
  5
1FC2
102
{ACAD_REACTORS
330
1FC1
102
}
330
1FC1
100
AcDbDictionary
281
     1
  3
*A1
350
1FC3
  0
DICTIONARY
  5
1FC7
102
{ACAD_REACTORS
330
1FC6
102
}
330
1FC6
100
AcDbDictionary
281
     1
  3
*A1
350
1FC8
  0
DICTIONARY
  5
1FCC
102
{ACAD_REACTORS
330
1FCB
102
}
330
1FCB
100
AcDbDictionary
281
     1
  3
*A1
350
1FCD
  0
DICTIONARY
  5
1FE2
102
{ACAD_REACTORS
330
1FE1
102
}
330
1FE1
100
AcDbDictionary
281
     1
  3
*A1
350
1FE3
  0
DICTIONARY
  5
1FE7
102
{ACAD_REACTORS
330
1FE6
102
}
330
1FE6
100
AcDbDictionary
281
     1
  3
*A1
350
1FE8
  0
DICTIONARY
  5
1FF0
102
{ACAD_REACTORS
330
1FEF
102
}
330
1FEF
100
AcDbDictionary
281
     1
  3
*A1
350
1FF1
  0
DICTIONARY
  5
1FF5
102
{ACAD_REACTORS
330
1FF4
102
}
330
1FF4
100
AcDbDictionary
281
     1
  3
*A1
350
1FF6
  0
DICTIONARY
  5
1FFA
102
{ACAD_REACTORS
330
1FF9
102
}
330
1FF9
100
AcDbDictionary
281
     1
  3
*A1
350
1FFB
  0
DICTIONARY
  5
1FFF
102
{ACAD_REACTORS
330
1FFE
102
}
330
1FFE
100
AcDbDictionary
281
     1
  3
*A1
350
2000
  0
DICTIONARY
  5
2005
102
{ACAD_REACTORS
330
2004
102
}
330
2004
100
AcDbDictionary
281
     1
  3
*A1
350
2006
  0
DICTIONARY
  5
200A
102
{ACAD_REACTORS
330
2009
102
}
330
2009
100
AcDbDictionary
281
     1
  3
*A1
350
200B
  0
DICTIONARY
  5
2014
102
{ACAD_REACTORS
330
2013
102
}
330
2013
100
AcDbDictionary
281
     1
  3
*A1
350
2015
  0
DICTIONARY
  5
201B
102
{ACAD_REACTORS
330
201A
102
}
330
201A
100
AcDbDictionary
281
     1
  3
*A1
350
201C
  0
DICTIONARY
  5
2023
102
{ACAD_REACTORS
330
2022
102
}
330
2022
100
AcDbDictionary
281
     1
  3
*A1
350
2024
  0
DICTIONARY
  5
2029
102
{ACAD_REACTORS
330
2028
102
}
330
2028
100
AcDbDictionary
281
     1
  3
*A1
350
202A
  0
DICTIONARY
  5
204D
102
{ACAD_REACTORS
330
204C
102
}
330
204C
100
AcDbDictionary
281
     1
  3
*A1
350
204E
  0
DICTIONARY
  5
2052
102
{ACAD_REACTORS
330
2051
102
}
330
2051
100
AcDbDictionary
281
     1
  3
*A1
350
2053
  0
DICTIONARY
  5
205C
102
{ACAD_REACTORS
330
205B
102
}
330
205B
100
AcDbDictionary
281
     1
  3
*A1
350
205D
  0
DICTIONARY
  5
2062
102
{ACAD_REACTORS
330
2061
102
}
330
2061
100
AcDbDictionary
281
     1
  3
*A1
350
2063
  0
DICTIONARY
  5
236
330
21C
100
AcDbDictionary
280
     1
281
     1
  3
ACAD_XREC_ROUNDTRIP
360
2690
  0
DICTIONARY
  5
205
330
22
100
AcDbDictionary
280
     1
281
     1
  0
DICTIONARY
  5
1F9
330
ED
100
AcDbDictionary
280
     1
281
     1
  3
FBXASSET
360
1FA
  0
DICTIONARY
  5
1F7
330
EC
100
AcDbDictionary
280
     1
281
     1
  3
FBXASSET
360
1F8
  0
DICTIONARY
  5
173
330
EE
100
AcDbDictionary
280
     1
281
     1
  3
BUMPTILE
360
175
  3
DIFFUSETILE
360
174
  3
FBXASSET
360
1FB
  3
OPACITYTILE
360
176
  3
REFLECTIONTILE
360
177
  0
DICTIONARY
  5
234
330
21A
100
AcDbDictionary
280
     1
281
     1
  3
ACAD_XREC_ROUNDTRIP
360
268F
  0
DICTIONARY
  5
162
330
7F
100
AcDbDictionary
280
     1
281
     1
  3
ACAD_ROUNDTRIP_2008_TABLESTYLE_CELLSTYLEMAP
360
268E
  0
ACDB_TEXTOBJECTCONTEXTDATA_CLASS
  5
1921
102
{ACAD_REACTORS
330
1920
102
}
330
1920
100
AcDbObjectContextData
 70
     4
290
     1
100
AcDbAnnotScaleObjectContextData
340
1C4
 70
     1
 50
0.0
 10
2670.05076142132
 20
384.9999999999989
 11
2800.0
 21
409.9999999999988
  0
ACDB_TEXTOBJECTCONTEXTDATA_CLASS
  5
1926
102
{ACAD_REACTORS
330
1925
102
}
330
1925
100
AcDbObjectContextData
 70
     4
290
     1
100
AcDbAnnotScaleObjectContextData
340
1C4
 70
     1
 50
0.0
 10
3390.482233502539
 20
384.9999999999988
 11
3500.0
 21
409.9999999999988
  0
ACDB_TEXTOBJECTCONTEXTDATA_CLASS
  5
192B
102
{ACAD_REACTORS
330
192A
102
}
330
192A
100
AcDbObjectContextData
 70
     4
290
     1
100
AcDbAnnotScaleObjectContextData
340
1C4
 70
     1
 50
0.0
 10
2789.720812182741
 20
244.999999999999
 11
3299.999999999999
 21
269.999999999999
  0
ACDB_TEXTOBJECTCONTEXTDATA_CLASS
  5
1930
102
{ACAD_REACTORS
330
192F
102
}
330
192F
100
AcDbObjectContextData
 70
     4
290
     1
100
AcDbAnnotScaleObjectContextData
340
1C4
 70
     1
 50
0.0
 10
2715.862944162437
 20
524.999999999999
 11
2800.0
 21
549.999999999999
  0
ACDB_TEXTOBJECTCONTEXTDATA_CLASS
  5
1935
102
{ACAD_REACTORS
330
1934
102
}
330
1934
100
AcDbObjectContextData
 70
     4
290
     1
100
AcDbAnnotScaleObjectContextData
340
1C4
 70
     1
 50
0.0
 10
3242.005076142132
 20
524.9999999999988
 11
3500.0
 21
549.9999999999988
  0
ACDB_TEXTOBJECTCONTEXTDATA_CLASS
  5
193A
102
{ACAD_REACTORS
330
1939
102
}
330
1939
100
AcDbObjectContextData
 70
     4
290
     1
100
AcDbAnnotScaleObjectContextData
340
1C4
 70
     1
 50
0.0
 10
2702.53807106599
 20
664.9999999999989
 11
2800.0
 21
689.9999999999989
  0
ACDB_TEXTOBJECTCONTEXTDATA_CLASS
  5
193F
102
{ACAD_REACTORS
330
193E
102
}
330
193E
100
AcDbObjectContextData
 70
     4
290
     1
100
AcDbAnnotScaleObjectContextData
340
1C4
 70
     1
 50
0.0
 10
3358.121827411168
 20
664.9999999999988
 11
3500.0
 21
689.9999999999988
  0
ACDB_ALDIMOBJECTCONTEXTDATA_CLASS
  5
1A3B
102
{ACAD_REACTORS
330
1A3A
102
}
330
1A3A
100
AcDbObjectContextData
 70
     4
290
     1
100
AcDbAnnotScaleObjectContextData
340
1C4
100
AcDbDimensionObjectContextData
  2
*D1
293
     0
 10
710.0000000000001
 20
4894.999999999999
294
     1
140
0.0
298
     0
291
     0
 70
     0
292
     0
 71
     0
280
     0
295
     0
296
     0
297
     0
100
AcDbAlignedDimensionObjectContextData
 11
740.0000000000009
 21
4969.999999999998
 31
0.0
  0
ACDB_ALDIMOBJECTCONTEXTDATA_CLASS
  5
1A57
102
{ACAD_REACTORS
330
1A56
102
}
330
1A56
100
AcDbObjectContextData
 70
     4
290
     1
100
AcDbAnnotScaleObjectContextData
340
1C4
100
AcDbDimensionObjectContextData
  2
*D2
293
     0
 10
710.0000000000002
 20
4569.999999999998
294
     1
140
0.0
298
     0
291
     0
 70
     0
292
     0
 71
     0
280
     0
295
     0
296
     0
297
     0
100
AcDbAlignedDimensionObjectContextData
 11
740.0000000000009
 21
4319.999999999998
 31
0.0
  0
ACDB_ALDIMOBJECTCONTEXTDATA_CLASS
  5
1A69
102
{ACAD_REACTORS
330
1A68
102
}
330
1A68
100
AcDbObjectContextData
 70
     4
290
     1
100
AcDbAnnotScaleObjectContextData
340
1C4
100
AcDbDimensionObjectContextData
  2
*D3
293
     0
 10
710.0000000000002
 20
4244.999999999998
294
     1
140
0.0
298
     0
291
     0
 70
     0
292
     0
 71
     0
280
     0
295
     0
296
     0
297
     0
100
AcDbAlignedDimensionObjectContextData
 11
740.0000000000009
 21
4169.999999999999
 31
0.0
  0
ACDB_ALDIMOBJECTCONTEXTDATA_CLASS
  5
1A7B
102
{ACAD_REACTORS
330
1A7A
102
}
330
1A7A
100
AcDbObjectContextData
 70
     4
290
     1
100
AcDbAnnotScaleObjectContextData
340
1C4
100
AcDbDimensionObjectContextData
  2
*D4
293
     0
 10
550.0
 20
4569.999999999999
294
     1
140
0.0
298
     0
291
     0
 70
     0
292
     0
 71
     0
280
     0
295
     0
296
     0
297
     0
100
AcDbAlignedDimensionObjectContextData
 11
580.0000000000009
 21
4969.999999999998
 31
0.0
  0
ACDB_ALDIMOBJECTCONTEXTDATA_CLASS
  5
1AB5
102
{ACAD_REACTORS
330
1AB4
102
}
330
1AB4
100
AcDbObjectContextData
 70
     4
290
     1
100
AcDbAnnotScaleObjectContextData
340
1C4
100
AcDbDimensionObjectContextData
  2
*D5
293
     0
 10
975.0000000000008
 20
5160.0
294
     1
140
0.0
298
     0
291
     0
 70
     0
292
     0
 71
     0
280
     0
295
     0
296
     0
297
     0
100
AcDbAlignedDimensionObjectContextData
 11
900.0000000000008
 21
5129.999999999999
 31
0.0
  0
ACDB_ALDIMOBJECTCONTEXTDATA_CLASS
  5
1AC7
102
{ACAD_REACTORS
330
1AC6
102
}
330
1AC6
100
AcDbObjectContextData
 70
     4
290
     1
100
AcDbAnnotScaleObjectContextData
340
1C4
100
AcDbDimensionObjectContextData
  2
*D6
293
     0
 10
1300.000000000001
 20
5160.0
294
     1
140
0.0
298
     0
291
     0
 70
     0
292
     0
 71
     0
280
     0
295
     0
296
     0
297
     0
100
AcDbAlignedDimensionObjectContextData
 11
1550.000000000001
 21
5129.999999999999
 31
0.0
  0
ACDB_ALDIMOBJECTCONTEXTDATA_CLASS
  5
1AD9
102
{ACAD_REACTORS
330
1AD8
102
}
330
1AD8
100
AcDbObjectContextData
 70
     4
290
     1
100
AcDbAnnotScaleObjectContextData
340
1C4
100
AcDbDimensionObjectContextData
  2
*D7
293
     0
 10
1625.000000000001
 20
5160.0
294
     1
140
0.0
298
     0
291
     0
 70
     0
292
     0
 71
     0
280
     0
295
     0
296
     0
297
     0
100
AcDbAlignedDimensionObjectContextData
 11
1700.000000000001
 21
5129.999999999999
 31
0.0
  0
ACDB_ALDIMOBJECTCONTEXTDATA_CLASS
  5
1AEB
102
{ACAD_REACTORS
330
1AEA
102
}
330
1AEA
100
AcDbObjectContextData
 70
     4
290
     1
100
AcDbAnnotScaleObjectContextData
340
1C4
100
AcDbDimensionObjectContextData
  2
*D8
293
     0
 10
1300.000000000001
 20
5319.999999999999
294
     1
140
0.0
298
     0
291
     0
 70
     0
292
     0
 71
     0
280
     0
295
     0
296
     0
297
     0
100
AcDbAlignedDimensionObjectContextData
 11
900.0000000000008
 21
5289.999999999999
 31
0.0
  0
ACDB_ALDIMOBJECTCONTEXTDATA_CLASS
  5
1AFD
102
{ACAD_REACTORS
330
1AFC
102
}
330
1AFC
100
AcDbObjectContextData
 70
     4
290
     1
100
AcDbAnnotScaleObjectContextData
340
1C4
100
AcDbDimensionObjectContextData
  2
*D9
293
     0
 10
710.0000000000002
 20
1719.999999999999
294
     1
140
0.0
298
     0
291
     0
 70
     0
292
     0
 71
     0
280
     0
295
     0
296
     0
297
     0
100
AcDbAlignedDimensionObjectContextData
 11
740.0000000000004
 21
1769.999999999999
 31
0.0
  0
ACDB_ALDIMOBJECTCONTEXTDATA_CLASS
  5
1B0F
102
{ACAD_REACTORS
330
1B0E
102
}
330
1B0E
100
AcDbObjectContextData
 70
     4
290
     1
100
AcDbAnnotScaleObjectContextData
340
1C4
100
AcDbDimensionObjectContextData
  2
*D10
293
     0
 10
667.8083464804513
 20
1644.999999999999
294
     0
140
0.0
298
     0
291
     0
 70
     0
292
     1
 71
     2
280
    24
295
     0
296
     0
297
     0
100
AcDbAlignedDimensionObjectContextData
 11
740.0000000000004
 21
1669.999999999999
 31
0.0
1001
ACAD
1000
DSTYLE
1002
{
1070
   279
1070
     2
1002
}
  0
ACDB_ALDIMOBJECTCONTEXTDATA_CLASS
  5
1B39
102
{ACAD_REACTORS
330
1B38
102
}
330
1B38
100
AcDbObjectContextData
 70
     4
290
     1
100
AcDbAnnotScaleObjectContextData
340
1C4
100
AcDbDimensionObjectContextData
  2
*D11
293
     0
 10
710.0000000000002
 20
1369.999999999999
294
     1
140
0.0
298
     0
291
     0
 70
     0
292
     0
 71
     0
280
     0
295
     0
296
     0
297
     0
100
AcDbAlignedDimensionObjectContextData
 11
740.0000000000003
 21
1119.999999999999
 31
0.0
  0
ACDB_ALDIMOBJECTCONTEXTDATA_CLASS
  5
1B4B
102
{ACAD_REACTORS
330
1B4A
102
}
330
1B4A
100
AcDbObjectContextData
 70
     4
290
     1
100
AcDbAnnotScaleObjectContextData
340
1C4
100
AcDbDimensionObjectContextData
  2
*D12
293
     0
 10
670.1061935856996
 20
1094.999999999999
294
     0
140
0.0
298
     0
291
     0
 70
     0
292
     1
 71
     2
280
    24
295
     0
296
     0
297
     0
100
AcDbAlignedDimensionObjectContextData
 11
740.0000000000003
 21
1069.999999999999
 31
0.0
1001
ACAD
1000
DSTYLE
1002
{
1070
   279
1070
     2
1002
}
  0
ACDB_ALDIMOBJECTCONTEXTDATA_CLASS
  5
1B5F
102
{ACAD_REACTORS
330
1B5E
102
}
330
1B5E
100
AcDbObjectContextData
 70
     4
290
     1
100
AcDbAnnotScaleObjectContextData
340
1C4
100
AcDbDimensionObjectContextData
  2
*D13
293
     0
 10
710.0000000000001
 20
1019.999999999999
294
     1
140
0.0
298
     0
291
     0
 70
     0
292
     0
 71
     0
280
     0
295
     0
296
     0
297
     0
100
AcDbAlignedDimensionObjectContextData
 11
740.0000000000002
 21
969.9999999999992
 31
0.0
  0
ACDB_ALDIMOBJECTCONTEXTDATA_CLASS
  5
1B89
102
{ACAD_REACTORS
330
1B88
102
}
330
1B88
100
AcDbObjectContextData
 70
     4
290
     1
100
AcDbAnnotScaleObjectContextData
340
1C4
100
AcDbDimensionObjectContextData
  2
*D14
293
     0
 10
950.0000000000008
 20
1399.999999999999
294
     1
140
0.0
298
     0
291
     0
 70
     0
292
     0
 71
     0
280
     0
295
     0
296
     0
297
     0
100
AcDbAlignedDimensionObjectContextData
 11
900.0000000000008
 21
1369.999999999999
 31
0.0
  0
ACDB_ALDIMOBJECTCONTEXTDATA_CLASS
  5
1B99
102
{ACAD_REACTORS
330
1B98
102
}
330
1B98
100
AcDbObjectContextData
 70
     4
290
     1
100
AcDbAnnotScaleObjectContextData
340
1C4
100
AcDbDimensionObjectContextData
  2
*D15
293
     0
 10
1126.192893401016
 20
1399.999999999999
294
     1
140
0.0
298
     0
291
     0
 70
     0
292
     0
 71
     0
280
     0
295
     0
296
     0
297
     0
100
AcDbAlignedDimensionObjectContextData
 11
1050.000000000001
 21
1369.999999999999
 31
0.0
  0
ACDB_ALDIMOBJECTCONTEXTDATA_CLASS
  5
1BAD
102
{ACAD_REACTORS
330
1BAC
102
}
330
1BAC
100
AcDbObjectContextData
 70
     4
290
     1
100
AcDbAnnotScaleObjectContextData
340
1C4
100
AcDbDimensionObjectContextData
  2
*D16
293
     0
 10
1270.0
 20
1196.192893401014
294
     1
140
0.0
298
     0
291
     0
 70
     0
292
     0
 71
     0
280
     0
295
     0
296
     0
297
     0
100
AcDbAlignedDimensionObjectContextData
 11
1300.000000000001
 21
1119.999999999999
 31
0.0
  0
ACDB_ALDIMOBJECTCONTEXTDATA_CLASS
  5
1BBF
102
{ACAD_REACTORS
330
1BBE
102
}
330
1BBE
100
AcDbObjectContextData
 70
     4
290
     1
100
AcDbAnnotScaleObjectContextData
340
1C4
100
AcDbDimensionObjectContextData
  2
*D17
293
     0
 10
1270.0
 20
1019.999999999999
294
     1
140
0.0
298
     0
291
     0
 70
     0
292
     0
 71
     0
280
     0
295
     0
296
     0
297
     0
100
AcDbAlignedDimensionObjectContextData
 11
1300.000000000001
 21
969.999999999999
 31
0.0
  0
ACDB_ALDIMOBJECTCONTEXTDATA_CLASS
  5
1BCF
102
{ACAD_REACTORS
330
1BCE
102
}
330
1BCE
100
AcDbObjectContextData
 70
     4
290
     1
100
AcDbAnnotScaleObjectContextData
340
1C4
100
AcDbDimensionObjectContextData
  2
*D18
293
     0
 10
550.0
 20
2969.999999999999
294
     1
140
0.0
298
     0
291
     0
 70
     0
292
     0
 71
     0
280
     0
295
     0
296
     0
297
     0
100
AcDbAlignedDimensionObjectContextData
 11
580.0000000000006
 21
3369.999999999999
 31
0.0
  0
ACDB_ALDIMOBJECTCONTEXTDATA_CLASS
  5
1BE2
102
{ACAD_REACTORS
330
1BE1
102
}
330
1BE1
100
AcDbObjectContextData
 70
     4
290
     1
100
AcDbAnnotScaleObjectContextData
340
1C4
100
AcDbDimensionObjectContextData
  2
*D19
293
     0
 10
2310.0
 20
3324.999999999999
294
     1
140
0.0
298
     0
291
     0
 70
     0
292
     0
 71
     0
280
     0
295
     0
296
     0
297
     0
100
AcDbAlignedDimensionObjectContextData
 11
2340.000000000001
 21
3369.999999999999
 31
0.0
  0
ACDB_ALDIMOBJECTCONTEXTDATA_CLASS
  5
1BF4
102
{ACAD_REACTORS
330
1BF3
102
}
330
1BF3
100
AcDbObjectContextData
 70
     4
290
     1
100
AcDbAnnotScaleObjectContextData
340
1C4
100
AcDbDimensionObjectContextData
  2
*D20
293
     0
 10
2268.01442569436
 20
3274.999999999999
294
     0
140
0.0
298
     0
291
     0
 70
     0
292
     1
 71
     2
280
    24
295
     0
296
     0
297
     0
100
AcDbAlignedDimensionObjectContextData
 11
2340.000000000001
 21
3269.999999999999
 31
0.0
1001
ACAD
1000
DSTYLE
1002
{
1070
   279
1070
     2
1002
}
  0
ACDB_ALDIMOBJECTCONTEXTDATA_CLASS
  5
1C1E
102
{ACAD_REACTORS
330
1C1D
102
}
330
1C1D
100
AcDbObjectContextData
 70
     4
290
     1
100
AcDbAnnotScaleObjectContextData
340
1C4
100
AcDbDimensionObjectContextData
  2
*D21
293
     0
 10
2310.0
 20
2970.0
294
     1
140
0.0
298
     0
291
     0
 70
     0
292
     0
 71
     0
280
     0
295
     0
296
     0
297
     0
100
AcDbAlignedDimensionObjectContextData
 11
2340.000000000001
 21
2669.999999999999
 31
0.0
  0
ACDB_ALDIMOBJECTCONTEXTDATA_CLASS
  5
1C30
102
{ACAD_REACTORS
330
1C2F
102
}
330
1C2F
100
AcDbObjectContextData
 70
     4
290
     1
100
AcDbAnnotScaleObjectContextData
340
1C4
100
AcDbDimensionObjectContextData
  2
*D22
293
     0
 10
2310.0
 20
2655.0
294
     1
140
0.0
298
     0
291
     0
 70
     0
292
     1
 71
     0
280
     8
295
     0
296
     0
297
     0
100
AcDbAlignedDimensionObjectContextData
 11
2340.000000000001
 21
2639.999999999999
 31
0.0
  0
ACDB_ALDIMOBJECTCONTEXTDATA_CLASS
  5
1C44
102
{ACAD_REACTORS
330
1C43
102
}
330
1C43
100
AcDbObjectContextData
 70
     4
290
     1
100
AcDbAnnotScaleObjectContextData
340
1C4
100
AcDbDimensionObjectContextData
  2
*D23
293
     0
 10
2310.0
 20
2513.807106598985
294
     1
140
0.0
298
     0
291
     0
 70
     0
292
     0
 71
     0
280
     0
295
     0
296
     0
297
     0
100
AcDbAlignedDimensionObjectContextData
 11
2340.000000000001
 21
2569.999999999999
 31
0.0
  0
ACDB_ALDIMOBJECTCONTEXTDATA_CLASS
  5
1C7F
102
{ACAD_REACTORS
330
1C7E
102
}
330
1C7E
100
AcDbObjectContextData
 70
     4
290
     1
100
AcDbAnnotScaleObjectContextData
340
1C4
100
AcDbDimensionObjectContextData
  2
*D24
293
     0
 10
2575.000000000001
 20
2439.999999999999
294
     1
140
0.0
298
     0
291
     0
 70
     0
292
     0
 71
     0
280
     0
295
     0
296
     0
297
     0
100
AcDbAlignedDimensionObjectContextData
 11
2500.000000000001
 21
2409.999999999999
 31
0.0
  0
ACDB_ALDIMOBJECTCONTEXTDATA_CLASS
  5
1C91
102
{ACAD_REACTORS
330
1C90
102
}
330
1C90
100
AcDbObjectContextData
 70
     4
290
     1
100
AcDbAnnotScaleObjectContextData
340
1C4
100
AcDbDimensionObjectContextData
  2
*D25
293
     0
 10
2900.000000000001
 20
2439.999999999999
294
     1
140
0.0
298
     0
291
     0
 70
     0
292
     0
 71
     0
280
     0
295
     0
296
     0
297
     0
100
AcDbAlignedDimensionObjectContextData
 11
3150.000000000001
 21
2409.999999999999
 31
0.0
  0
ACDB_ALDIMOBJECTCONTEXTDATA_CLASS
  5
1CA3
102
{ACAD_REACTORS
330
1CA2
102
}
330
1CA2
100
AcDbObjectContextData
 70
     4
290
     1
100
AcDbAnnotScaleObjectContextData
340
1C4
100
AcDbDimensionObjectContextData
  2
*D26
293
     0
 10
3225.000000000001
 20
2439.999999999998
294
     1
140
0.0
298
     0
291
     0
 70
     0
292
     0
 71
     0
280
     0
295
     0
296
     0
297
     0
100
AcDbAlignedDimensionObjectContextData
 11
3300.000000000001
 21
2409.999999999997
 31
0.0
  0
ACDB_ALDIMOBJECTCONTEXTDATA_CLASS
  5
1D0C
102
{ACAD_REACTORS
330
1D0B
102
}
330
1D0B
100
AcDbObjectContextData
 70
     4
290
     1
100
AcDbAnnotScaleObjectContextData
340
1C4
100
AcDbDimensionObjectContextData
  2
*D27
293
     0
 10
2550.000000000001
 20
3000.0
294
     1
140
0.0
298
     0
291
     0
 70
     0
292
     0
 71
     0
280
     0
295
     0
296
     0
297
     0
100
AcDbAlignedDimensionObjectContextData
 11
2500.000000000001
 21
2969.999999999999
 31
0.0
  0
ACDB_ALDIMOBJECTCONTEXTDATA_CLASS
  5
1D1C
102
{ACAD_REACTORS
330
1D1B
102
}
330
1D1B
100
AcDbObjectContextData
 70
     4
290
     1
100
AcDbAnnotScaleObjectContextData
340
1C4
100
AcDbDimensionObjectContextData
  2
*D28
293
     0
 10
2726.192893401016
 20
3000.0
294
     1
140
0.0
298
     0
291
     0
 70
     0
292
     0
 71
     0
280
     0
295
     0
296
     0
297
     0
100
AcDbAlignedDimensionObjectContextData
 11
2650.000000000001
 21
2969.999999999999
 31
0.0
  0
ACDB_ALDIMOBJECTCONTEXTDATA_CLASS
  5
1D2E
102
{ACAD_REACTORS
330
1D2D
102
}
330
1D2D
100
AcDbObjectContextData
 70
     4
290
     1
100
AcDbAnnotScaleObjectContextData
340
1C4
100
AcDbDimensionObjectContextData
  2
*D29
293
     0
 10
1300.000000000001
 20
2399.999999999999
294
     1
140
0.0
298
     0
291
     0
 70
     0
292
     0
 71
     0
280
     0
295
     0
296
     0
297
     0
100
AcDbAlignedDimensionObjectContextData
 11
1700.000000000001
 21
2369.999999999999
 31
0.0
  0
ACDB_ALDIMOBJECTCONTEXTDATA_CLASS
  5
1D41
102
{ACAD_REACTORS
330
1D40
102
}
330
1D40
100
AcDbObjectContextData
 70
     4
290
     1
100
AcDbAnnotScaleObjectContextData
340
1C4
100
AcDbDimensionObjectContextData
  2
*D30
293
     0
 10
950.0000000000008
 20
839.9999999999984
294
     1
140
0.0
298
     0
291
     0
 70
     0
292
     0
 71
     0
280
     0
295
     0
296
     0
297
     0
100
AcDbAlignedDimensionObjectContextData
 11
900.0000000000008
 21
809.9999999999983
 31
0.0
  0
ACDB_ALDIMOBJECTCONTEXTDATA_CLASS
  5
1D5C
102
{ACAD_REACTORS
330
1D5B
102
}
330
1D5B
100
AcDbObjectContextData
 70
     4
290
     1
100
AcDbAnnotScaleObjectContextData
340
1C4
100
AcDbDimensionObjectContextData
  2
*D31
293
     0
 10
1025.000000000001
 20
780.3445938805307
294
     0
140
0.0
298
     0
291
     0
 70
     0
292
     1
 71
     2
280
    24
295
     0
296
     0
297
     0
100
AcDbAlignedDimensionObjectContextData
 11
1050.000000000001
 21
809.9999999999983
 31
0.0
1001
ACAD
1000
DSTYLE
1002
{
1070
   279
1070
     2
1002
}
  0
ACDB_ALDIMOBJECTCONTEXTDATA_CLASS
  5
1D70
102
{ACAD_REACTORS
330
1D6F
102
}
330
1D6F
100
AcDbObjectContextData
 70
     4
290
     1
100
AcDbAnnotScaleObjectContextData
340
1C4
100
AcDbDimensionObjectContextData
  2
*D32
293
     0
 10
1300.000000000001
 20
839.9999999999984
294
     1
140
0.0
298
     0
291
     0
 70
     0
292
     0
 71
     0
280
     0
295
     0
296
     0
297
     0
100
AcDbAlignedDimensionObjectContextData
 11
1550.000000000001
 21
809.9999999999983
 31
0.0
  0
ACDB_ALDIMOBJECTCONTEXTDATA_CLASS
  5
1D82
102
{ACAD_REACTORS
330
1D81
102
}
330
1D81
100
AcDbObjectContextData
 70
     4
290
     1
100
AcDbAnnotScaleObjectContextData
340
1C4
100
AcDbDimensionObjectContextData
  2
*D33
293
     0
 10
1575.000000000001
 20
778.9746195816515
294
     0
140
0.0
298
     0
291
     0
 70
     0
292
     1
 71
     2
280
    24
295
     0
296
     0
297
     0
100
AcDbAlignedDimensionObjectContextData
 11
1600.000000000001
 21
809.9999999999983
 31
0.0
1001
ACAD
1000
DSTYLE
1002
{
1070
   279
1070
     2
1002
}
  0
ACDB_ALDIMOBJECTCONTEXTDATA_CLASS
  5
1D96
102
{ACAD_REACTORS
330
1D95
102
}
330
1D95
100
AcDbObjectContextData
 70
     4
290
     1
100
AcDbAnnotScaleObjectContextData
340
1C4
100
AcDbDimensionObjectContextData
  2
*D34
293
     0
 10
1650.000000000001
 20
839.9999999999984
294
     1
140
0.0
298
     0
291
     0
 70
     0
292
     0
 71
     0
280
     0
295
     0
296
     0
297
     0
100
AcDbAlignedDimensionObjectContextData
 11
1700.000000000001
 21
809.9999999999983
 31
0.0
  0
ACDB_LEADEROBJECTCONTEXTDATA_CLASS
  5
1FB0
102
{ACAD_REACTORS
330
1FAF
102
}
330
1FAF
100
AcDbObjectContextData
 70
     4
290
     1
100
AcDbAnnotScaleObjectContextData
340
1C4
 70
     2
 10
1300.000000000001
 20
3289.999999999999
 30
0.0
 10
1300.000000000001
 20
2649.999999999999
 30
0.0
 11
1.0
 21
0.0
 31
0.0
290
     1
 12
0.0
 22
0.0
 32
0.0
 13
0.0
 23
0.0
 33
0.0
  0
ACDB_LEADEROBJECTCONTEXTDATA_CLASS
  5
1FB6
102
{ACAD_REACTORS
330
1FB5
102
}
330
1FB5
100
AcDbObjectContextData
 70
     4
290
     1
100
AcDbAnnotScaleObjectContextData
340
1C4
 70
     2
 10
1300.000000000001
 20
2649.999999999999
 30
0.0
 10
1300.000000000001
 20
2469.999999999999
 30
0.0
 11
1.0
 21
0.0
 31
0.0
290
     1
 12
0.0
 22
0.0
 32
0.0
 13
0.0
 23
0.0
 33
0.0
  0
ACDB_TEXTOBJECTCONTEXTDATA_CLASS
  5
1FBC
102
{ACAD_REACTORS
330
1FBB
102
}
330
1FBB
100
AcDbObjectContextData
 70
     4
290
     1
100
AcDbAnnotScaleObjectContextData
340
1C4
 70
     0
 50
0.0
 10
1300.000000000001
 20
2477.30964467005
 11
1300.000000000001
 21
2469.999999999999
  0
ACDB_LEADEROBJECTCONTEXTDATA_CLASS
  5
1FC3
102
{ACAD_REACTORS
330
1FC2
102
}
330
1FC2
100
AcDbObjectContextData
 70
     4
290
     1
100
AcDbAnnotScaleObjectContextData
340
1C4
 70
     2
 10
974.7071067811869
 20
2889.999999999999
 30
0.0
 10
1626.000000000001
 20
2889.999999999999
 30
0.0
 11
1.0
 21
0.0
 31
0.0
290
     1
 12
0.0
 22
0.0
 32
0.0
 13
0.0
 23
0.0
 33
0.0
  0
ACDB_LEADEROBJECTCONTEXTDATA_CLASS
  5
1FC8
102
{ACAD_REACTORS
330
1FC7
102
}
330
1FC7
100
AcDbObjectContextData
 70
     4
290
     1
100
AcDbAnnotScaleObjectContextData
340
1C4
 70
     2
 10
1626.000000000001
 20
2889.999999999999
 30
0.0
 10
1760.000000000001
 20
2889.999999999999
 30
0.0
 11
1.0
 21
0.0
 31
0.0
290
     1
 12
0.0
 22
0.0
 32
0.0
 13
0.0
 23
0.0
 33
0.0
  0
ACDB_TEXTOBJECTCONTEXTDATA_CLASS
  5
1FCD
102
{ACAD_REACTORS
330
1FCC
102
}
330
1FCC
100
AcDbObjectContextData
 70
     4
290
     1
100
AcDbAnnotScaleObjectContextData
340
1C4
 70
     0
 50
0.0
 10
1760.000000000001
 20
2897.30964467005
 11
1760.000000000001
 21
2889.999999999999
  0
ACDB_TEXTOBJECTCONTEXTDATA_CLASS
  5
1FE3
102
{ACAD_REACTORS
330
1FE2
102
}
330
1FE2
100
AcDbObjectContextData
 70
     4
290
     1
100
AcDbAnnotScaleObjectContextData
340
1C4
 70
     1
 50
0.0
 10
802.8426395939096
 20
4429.999999999998
 11
820.0000000000009
 21
4469.999999999998
  0
ACDB_TEXTOBJECTCONTEXTDATA_CLASS
  5
1FE8
102
{ACAD_REACTORS
330
1FE7
102
}
330
1FE7
100
AcDbObjectContextData
 70
     4
290
     1
100
AcDbAnnotScaleObjectContextData
340
1C4
 70
     1
 50
0.0
 10
1762.84263959391
 20
4429.999999999998
 11
1780.000000000001
 21
4469.999999999998
  0
ACDB_LEADEROBJECTCONTEXTDATA_CLASS
  5
1FF1
102
{ACAD_REACTORS
330
1FF0
102
}
330
1FF0
100
AcDbObjectContextData
 70
     4
290
     1
100
AcDbAnnotScaleObjectContextData
340
1C4
 70
     2
 10
820.0000000000006
 20
3009.999999999999
 30
0.0
 10
820.0000000000006
 20
3109.999999999999
 30
0.0
 11
1.0
 21
0.0
 31
0.0
290
     1
 12
0.0
 22
0.0
 32
0.0
 13
0.0
 23
0.0
 33
0.0
  0
ACDB_LEADEROBJECTCONTEXTDATA_CLASS
  5
1FF6
102
{ACAD_REACTORS
330
1FF5
102
}
330
1FF5
100
AcDbObjectContextData
 70
     4
290
     1
100
AcDbAnnotScaleObjectContextData
340
1C4
 70
     2
 10
1780.000000000001
 20
3009.999999999999
 30
0.0
 10
1780.000000000001
 20
3109.999999999999
 30
0.0
 11
1.0
 21
0.0
 31
0.0
290
     1
 12
0.0
 22
0.0
 32
0.0
 13
0.0
 23
0.0
 33
0.0
  0
ACDB_TEXTOBJECTCONTEXTDATA_CLASS
  5
1FFB
102
{ACAD_REACTORS
330
1FFA
102
}
330
1FFA
100
AcDbObjectContextData
 70
     4
290
     1
100
AcDbAnnotScaleObjectContextData
340
1C4
 70
     1
 50
0.0
 10
804.4670050761428
 20
3117.30964467005
 11
820.0000000000006
 21
3109.999999999999
  0
ACDB_TEXTOBJECTCONTEXTDATA_CLASS
  5
2000
102
{ACAD_REACTORS
330
1FFF
102
}
330
1FFF
100
AcDbObjectContextData
 70
     4
290
     1
100
AcDbAnnotScaleObjectContextData
340
1C4
 70
     1
 50
0.0
 10
1764.467005076143
 20
3117.30964467005
 11
1780.000000000001
 21
3109.999999999999
  0
ACDB_LEADEROBJECTCONTEXTDATA_CLASS
  5
2006
102
{ACAD_REACTORS
330
2005
102
}
330
2005
100
AcDbObjectContextData
 70
     4
290
     1
100
AcDbAnnotScaleObjectContextData
340
1C4
 70
     2
 10
820.0000000000009
 20
4569.999999999999
 30
0.0
 10
820.0000000000009
 20
4469.999999999998
 30
0.0
 11
1.0
 21
0.0
 31
0.0
290
     1
 12
0.0
 22
0.0
 32
0.0
 13
0.0
 23
0.0
 33
0.0
  0
ACDB_LEADEROBJECTCONTEXTDATA_CLASS
  5
200B
102
{ACAD_REACTORS
330
200A
102
}
330
200A
100
AcDbObjectContextData
 70
     4
290
     1
100
AcDbAnnotScaleObjectContextData
340
1C4
 70
     2
 10
1780.000000000001
 20
4569.999999999999
 30
0.0
 10
1780.000000000001
 20
4469.999999999998
 30
0.0
 11
1.0
 21
0.0
 31
0.0
290
     1
 12
0.0
 22
0.0
 32
0.0
 13
0.0
 23
0.0
 33
0.0
  0
ACDB_TEXTOBJECTCONTEXTDATA_CLASS
  5
2015
102
{ACAD_REACTORS
330
2014
102
}
330
2014
100
AcDbObjectContextData
 70
     4
290
     1
100
AcDbAnnotScaleObjectContextData
340
1C4
 70
     0
 50
0.0
 10
560.0
 20
5359.137055837563
 11
560.0
 21
5349.999999999999
  0
ACDB_TEXTOBJECTCONTEXTDATA_CLASS
  5
201C
102
{ACAD_REACTORS
330
201B
102
}
330
201B
100
AcDbObjectContextData
 70
     4
290
     1
100
AcDbAnnotScaleObjectContextData
340
1C4
 70
     0
 50
0.0
 10
560.0
 20
3479.137055837563
 11
560.0
 21
3469.999999999999
  0
ACDB_TEXTOBJECTCONTEXTDATA_CLASS
  5
2024
102
{ACAD_REACTORS
330
2023
102
}
330
2023
100
AcDbObjectContextData
 70
     4
290
     1
100
AcDbAnnotScaleObjectContextData
340
1C4
 70
     0
 50
0.0
 10
2320.0
 20
3479.137055837563
 11
2320.0
 21
3469.999999999999
  0
ACDB_TEXTOBJECTCONTEXTDATA_CLASS
  5
202A
102
{ACAD_REACTORS
330
2029
102
}
330
2029
100
AcDbObjectContextData
 70
     4
290
     1
100
AcDbAnnotScaleObjectContextData
340
1C4
 70
     0
 50
0.0
 10
719.9999999999995
 20
1879.137055837562
 11
719.9999999999995
 21
1869.999999999999
  0
ACDB_LEADEROBJECTCONTEXTDATA_CLASS
  5
204E
102
{ACAD_REACTORS
330
204D
102
}
330
204D
100
AcDbObjectContextData
 70
     4
290
     1
100
AcDbAnnotScaleObjectContextData
340
1C4
 70
     2
 10
1696.000000000001
 20
3365.999999999999
 30
0.0
 10
1780.266666666668
 20
3444.999999999999
 30
0.0
 11
1.0
 21
0.0
 31
0.0
290
     1
 12
0.0
 22
0.0
 32
0.0
 13
0.0
 23
0.0
 33
0.0
  0
ACDB_TEXTOBJECTCONTEXTDATA_CLASS
  5
2053
102
{ACAD_REACTORS
330
2052
102
}
330
2052
100
AcDbObjectContextData
 70
     4
290
     1
100
AcDbAnnotScaleObjectContextData
340
1C4
 70
     0
 50
0.0
 10
1780.266666666668
 20
3452.30964467005
 11
1780.266666666668
 21
3444.999999999999
  0
ACDB_LEADEROBJECTCONTEXTDATA_CLASS
  5
205D
102
{ACAD_REACTORS
330
205C
102
}
330
205C
100
AcDbObjectContextData
 70
     4
290
     1
100
AcDbAnnotScaleObjectContextData
340
1C4
 70
     2
 10
1300.000000000001
 20
3344.999999999999
 30
0.0
 10
1485.000000000001
 20
3529.999999999999
 30
0.0
 11
1.0
 21
0.0
 31
0.0
290
     1
 12
0.0
 22
0.0
 32
0.0
 13
0.0
 23
0.0
 33
0.0
  0
ACDB_TEXTOBJECTCONTEXTDATA_CLASS
  5
2063
102
{ACAD_REACTORS
330
2062
102
}
330
2062
100
AcDbObjectContextData
 70
     4
290
     1
100
AcDbAnnotScaleObjectContextData
340
1C4
 70
     0
 50
0.0
 10
1485.000000000001
 20
3537.30964467005
 11
1485.000000000001
 21
3529.999999999999
  0
XRECORD
  5
2690
102
{ACAD_REACTORS
330
236
102
}
330
236
100
AcDbXrecord
280
     1
102
DISPLAYNAME
  1
Metric50
102
FLAGS
 90
        0
  0
XRECORD
  5
1FA
102
{ACAD_REACTORS
330
1F9
102
}
330
1F9
100
AcDbXrecord
280
     1
 70
     1
 90
429727718
  1
D62C5603-E3A1-4AEA-B7FB-FE5D8D0755AF
310
504B03040A0000080000CC70623B3DEE336E79000000790000001B0000006175746F6465736B2D64657369676E2D7061636B6167652E786D6C3C3F786D6C2076657273696F6E3D22312E302220656E636F64696E673D227574662D3822203F3E3C666F726D6174733E3C666F726D61743E687474703A2F2F736368656D612E
310
6175746F6465736B2E636F6D2F64657369676E2D7061636B6167652F323030393C2F666F726D61743E3C2F666F726D6174733E504B0304140006080800CC70623BD486FD9CA0000000F4000000130000005B436F6E74656E745F54797065735D2E786D6C7D8EC10E82300C865F65E91D8A1E8C310C0EEA1BF002731658846E
310
D98AC1B77784ABF1D8FE5FBFBF75BBCE937A534CCEB38643598122B6FEE978D0B0485F9C41B54DDD7D022595594E1A469170414C76A4D9A4D207E29CF43ECE46F218070CC6BECC4078ACAA135ACF422C856C0E68EA1BF5669944DDD7BCDE7B1F8E415D77AECB980613C2E4AC91FC167A2B244592486606FC29C8FD7F045B9A
310
EF7053A7E60B504B0304140006080800CC70623B853B8169EB0000007C01000008000000636F72652E786D6C8D90416EC3201045AF62CDB6C206821CC7C244919D9CA01740401C94182C03558F5F9C3852BBEB6A467FFE9B197D7EFC9E1EC5975982F5AE035262288C535E5B377690E21535501C055FBC8FBF6C503839990E
310
5619041F179FE64D52DE45E362569DD7661365082642A11EB9E920A89B99642953CC8E702F67A9EE7234257977194EC9EAE275C4EABCCF5EAD5940D4AC6F0E35A568B8F43562CD7046CD199FD07E60174276A7BE677B5EADB0E0D14EEFFB6A31321A0D82627C4084204C3F096B71DD52F6819B16635EADF63F509AF53FA164
310
5DDCD1EDDD17164090FCC8732078B56691CB33A85CD7DCC40F504B0304140006080800CC70623B55019EA25F0000007C00000007000000636E782E786D6C4DCB3B0E80201045D1AD90E915ED2CF8AC45050C11660C8261F98AB1B07AC9C97D42D718D865D3E909258CFD00CCE24AC6E326A164D74DC0B4128928FF32603847
310
2BA13128B1252AC747C6BAB984FC68F0B87FE8960A5C09FE86CFB69FBA01504B0304140006080800CC70623BDBABAAF470010000D40300000C0000006662782F636F72652E786D6CC553D16E823014FD95A6AF4B694182CC941A83FA05FB810A9511A125A5257EFE2E82712ECEB8A7F100CD39F7F69E734AF9FADC366850B6
310
AF8DCE7018308C942E4C59EB2AC3DE1D498AD15A706B8CFB56869196ADCAF00863C12B6B7C374385D14E6907A836A59A41D9F7CA615434B0C8705F7CAA5606D23BA8E84F41278B93AC54100640439DE0BDB320004D43C63716C7C399D30917DCFBBA9CD9BA8469F5B156168B24CED3F7248AC8769F27244EB73B92EED8862C
310
B7F13E0C179B3C8F979C8ECD82BBBABDAA2BAC924E9558448CBD9330242CFA08E3154B5651FCC6D215639C8EE5774DBE2B5F6CF2B5768B68963BB5F5588420E442FC700B1139D4CB01F450C1E918227C2E09DF070D8140C84E1E9AAB8F1340832A9CB13130A5F1376A908D57309505ECF2A0DF179C4E9D30F5B239B87E3823
310
7A79C6F31DE1A8A5AEC08474B03C7837EAE4938639B44E5932B833D2C6B6B279CDC613877FA26EE21F4A2A4C63EC7F29A2F301D1F9F7A0E37D145F504B0304140006080800CC70623B9C113CC27E0000009D0000000B0000006662782F636E782E786D6C4DCCDF0A83201C86E15B91DFB94BFB330DD428C8FB886521330DA7
310
6397BF1A1DECE883878F57749FCDA1B7892F1BBC047A23808C7F84D9FA55424E0BE6803A256208E9EF06C84F9B91703228B1C690F78B66B34CD9A5439DF5CF0BFBF65E35BCA1B8D6A5C6F540381E886698B5741C695F9503EBA150A2F8958E3DC3EA0B504B0304140006080800CC70623B7DF2F77C2A010000120200003100
310
00006662782F41393633353835312D344632462D344230382D423046372D3739314545314133324237412F636F72652E786D6C8D51DB8EC22014FC15C2939B0D2DB4B45643319AE817EC0F6041255A68B86CFCFC856D4D76DF7CE190393373060EDB3DC707F856CE6B6B7A480A0C81328395DA5C7B18C3057510EC3873D686
310
3F34088C18550F330C39BB3A1BA7051AAC09CA84841A2BD5020AEF55806078A44B0FFD7053A328440C89E1EFC52486BBB8AA8214A99D789CF9E05200300FC927E4FB4D5B375D43103D5527440FB843077C5AA3F5861C8F645F5787F59E95B390B318B55CE45AA638FAA2957BD7248B390B7A7CC51F9C124149C82B8C378810
310
84AB2F42B7B8DD56F413775B8C5999E9FF4471926F8AA236A1AE96B8B3CC434E5839373893369E1FAF30EA395917409EB7F26AF8801C171837A4A6AC9C89E9F9C9B1A58BA30FD6A5EF5DDDCF894B9AD9B6A59C957943A9FCAE2FD5BC4DFE03504B0304140006080800CC70623BAD7543B64E01000033030000300000006662
310
782F41393633353835312D344632462D344230382D423046372D3739314545314133324237412F636E782E786D6CD593CD6EC32010845F0571AD6CE3D48AD20813A9873E410FBD12D82434182C7EAAE6EDBB2424CD25871E7B41D6EC30B3FA84F9E67BB2E40B4234DE8DB46F1925E094D7C6ED479AD3AE5951B2113C789FEE
310
6C943839C1488B4C05DF079FE72A69D8C96C13AAD6B8631503449F83828872B949AC57D26200B826A308D316B4064D6E46FCDA41C05550DC9E483A00797BFD207EFB092A45DE9514C1BBD22178396BD39D891265658C238DEA00936C654E5E433CB65A26D9F6EDB5EBC14EBF49A45CB856E66048291F6939A9A81BB5C89177
310
38143CA680F4AA299D66A042CEB3354A2684DC9D8D178FE0D9B8B41CAAD720F880EE7EF93C0C18769E099ECC04D5A102C8049A8A05632F4DDF376CF1DE0F6BB65C2F8627B65A33C6BB62177CEBBDAD973006829F89F22E814B54F4BC2BE347F8AA8F681390B50FA73F804400B5F542E796F19FF974E7F78DB802FE05E20750
310
4B0304140006080800CC70623BE75B7789680500003C100000340000006662782F41393633353835312D344632462D344230382D423046372D3739314545314133324237412F6F626A656374732E786D6CAD575B8F9B3818FD2B887D06C22499CB8AA1CA655245D5B455A356FB305264C061D8018C6C3393D95FBFC7600890
310
A4CD5EF210B0B1BFEBF98E3F7B1FF6596ABC522E1296DF9BAE3D320D9A872C4AF2F8DE2CE5CEBA358D0FBEC719939D65A691938CDE9B6ADAF4BD98B3B2D05311DD91329583D9D5FC0F438434A7A611A644887B5384CF34233629258BA878B12322891DEFF6B66BD70BFB62634E8AE781D082709A4B588AF91C528CDA28B73F
310
1C998EEF39EABBEFA97FBD6A7C7E9553F9D3D79FE442923C3C523610337627CB87ABE99D359D4CC6D6E4FACAB5E6ABF9D2726FC6A3C5F56271377BB88362213924694B38DD99FE47C48627A1E7D49F5A8BB5E1A74C0A599ED3B0F21F1E56366B89112D681E218F0915D0D6F17AD41FBA2A369DCF6335D62ABBD39779D5DDD1
310
11D4D8DE3CBB96B2E04FB8202E41051754A1AA8E8F76B4C6DFE810B580B1547F4B84911149794252234D024EF8BBE963A95AE27B3D310A9D5C215C7960FAEE415ED75694C6AFB17BCACA5D99A60A9AA65F217B0BFC53292ACB92BF283FAD0D3621576592CB5BED907C2FA8E9DF794E35E97BEA31BED21FEB401ABB94C44839
310
DCACBF0E1C5DA8DA5B2F4DFFD32AD86F543D9E565E7056502E157C00AD2671CD534549AB752FCA9CDA00677A313F04E51B22FF19E57B300579E3C97EB29F682D92935CEC18CF901B7B54FD8C51F362B56FC72FE0B3C1EAE335EDCCBF5AEC39ADB17DC238973F804BA5E6F6BFE7AF1FB32E523BE9F3BD571418E3631DCA4D48
310
5250CF639223210A9446CA30052EDF057BD35F8329C1ECD84552BF0DC8D18BE7BCE23BFE6BD960AB4A7DE79923A103BEBD80F911CBAA2C60DB19B01CF164A5583B772EE6D3FFA56666CBCDA74DC97724A48F9A58967497E489C4D979006FD7A05E227A1EBDD0F737C623387A9C844D3709995625106D157315F8B8392CD4E0
310
A0B9A720C4BE9829CEF37EA1E13111214D53925356365ADA634861B52519DD27A00AEB808EAF0628E6F435519D446F45CF2C9CF5214F0A15B2F6D06B79DA3EE3CBF7F56780D2F4E7EF73A0F5E5B02A38D07DC852C6B7C1FBB6664213E0C39E3EBA7FF4E1AD23EA2829407C85E586727488B751B2DB9502BC7B228A3FD68B6E
310
A65A22397E690AA8D158D7E404EC8CDA235CC3B7D1898680131CEC2CDF2638C65196279577750F15884AEE19F94199155B92B13297978469D4F8D358DF0AEF7631E28DC8F0D9F437D5D39A83B2231A1D52D543813A824EF8D44BCFF2FA6A31BD1E8DAD87F1CCB526B3879935BF59CDADD5C37479BB1CDD4CA7B3556B516589
310
EF352754B706114D9C885EC9131DE6EFEB43D99AFE2391C2F958179413D7CFEF6B1B6DB1E7600F00DE6E5C67454A339A4BA2E0FBA85ED26F045D454F463DBFCE484C2F90F2E5E3666003662ED8F755951A7D1BECD5B30B550B2785C8E7320B7292A4838DDA71BBC863ED7613CAF659337A3354231D4FF4A182A54904C2898C
310
98B28C4AD0CE056CCF332A80986E571EE9DBC305BB5FEB7E509220A58D25CF042D712A806AC0AD0C657FDEF80D2D9CEAA2EE4D1C76F60BFE74219A06527D6F82DF6412526107381E55E353090704D085B52408A8913C4ED159D79BDA71BB4BC506F4831350EB6F975CD22D69BF7AC49B91A2C0A9DDA3D5CA36AD20FC478E37
310
E61844E2352865EBCB61A275A65283CAAA9DD27703B4102F5AF51EF5F573B75CBB5AD38BC845F7A49F82A0966A49C2E3EA5EA0ECD326CD965F1DB402C6FA8B51A4658C5C5E2EC9E214602E55810345408596591009A82E7E7FFACA19EEA299B14A0081A705CB3296EBC14CDF658DCD336EA6D1136881AAEB87B81AB9EE53D5
310
F5EB8BC8362082DA24122F98680A4E7930C01A0079749CEA14382A0783E5EBA5A10F8C098456A03D6A4AEB6BB881E2513747552A5DB22C7EDAF83BD5528081A365F7FF06504B0304140006080000CC70623B000000000000000000000000350000006662782F41393633353835312D344632462D344230382D423046372D37
310
39314545314133324237412F76657274696365732E62696E504B0304140006080800CC70623BF270F1330600000004000000360000006662782F41393633353835312D344632462D344230382D423046372D3739314545314133324237412F747269616E676C65732E62696E636660600000504B0304140006080000CC7062
310
3B000000000000000000000000370000006662782F41393633353835312D344632462D344230382D423046372D3739314545314133324237412F617474726962757465732E62696E504B0304140006080800CC70623B08DA0BD19000000041010000360000006662782F41393633353835312D344632462D344230382D4230
310
46372D3739314545314133324237412F6469726563746F72792E786D6C858F410AC3201045AF22B36F53E9A60B35CBEEBAE80D244E44489C6234F4F835464A48035D0DF398FF9F8AF63D0E6CC63039F212F8F9020C7D47C6792B21C5FE7403D62A1188E2E60C98D7234A5830286103A55745067B9D86B8A3CF9C7F90C11DE6
310
07FB144396D7B6A82D282E9A152AD114D5EF2CB866EEE831B8EEA07A7BB5A8D7D61A2BAAEB7FD5F70921FF497D00504B0304140006080800CC70623BEDD1DC58FD000000A00100003B0000006662782F41393633353835312D344632462D344230382D423046372D3739314545314133324237412F7265736F75726365732F
310
636F72652E786D6C8D504B6E833010BD0A9A6D65B00922041947112427E8052C33A156828DFCA97AFC9A40A576D7CDCCE87D344F8F9FBFE667F689CE6B6B3A6039850C8DB2A336530731DC4903D95970676DF82583CCC8193B5861107C72362E3BA4AC096842428D1D7107A5F7182053CF7474E0D507CE32973124857FE48B
310
540F3961CEF244279DE03EB81420DB9EAC1384436FA353E879B1B182C7A8C75DA3C7F453DF353A1075D537A7BA6464B8F535A99AE14A9A2BBD90E350DD183B5CFABE3AF262350B1EF4FC9351399401471025A527C218A1E53BAB5A5AB765F5469B96525EACF23FA6B88CFF34456DC2A1DCE36E360F82A5202F42F062ED2BAD
310
579969AFDD8A6F504B010214000A0000080000CC70623B3DEE336E79000000790000001B00000000000000000000000000000000006175746F6465736B2D64657369676E2D7061636B6167652E786D6C504B01021400140006080800CC70623BD486FD9CA0000000F40000001300000000000000000000000000B20000005B
310
436F6E74656E745F54797065735D2E786D6C504B01021400140006080800CC70623B853B8169EB0000007C010000080000000000000000000000000083010000636F72652E786D6C504B01021400140006080800CC70623B55019EA25F0000007C000000070000000000000000000000000094020000636E782E786D6C504B
310
01021400140006080800CC70623BDBABAAF470010000D40300000C00000000000000000000000000180300006662782F636F72652E786D6C504B01021400140006080800CC70623B9C113CC27E0000009D0000000B00000000000000000000000000B20400006662782F636E782E786D6C504B01021400140006080800CC70
310
623B7DF2F77C2A010000120200003100000000000000000000000000590500006662782F41393633353835312D344632462D344230382D423046372D3739314545314133324237412F636F72652E786D6C504B01021400140006080800CC70623BAD7543B64E010000330300003000000000000000000000000000D2060000
310
6662782F41393633353835312D344632462D344230382D423046372D3739314545314133324237412F636E782E786D6C504B01021400140006080800CC70623BE75B7789680500003C10000034000000000000000000000000006E0800006662782F41393633353835312D344632462D344230382D423046372D3739314545
310
314133324237412F6F626A656374732E786D6C504B01021400140006080000CC70623B0000000000000000000000003500000000000000000000000000280E00006662782F41393633353835312D344632462D344230382D423046372D3739314545314133324237412F76657274696365732E62696E504B01021400140006
310
080800CC70623BF270F133060000000400000036000000000000000000000000007B0E00006662782F41393633353835312D344632462D344230382D423046372D3739314545314133324237412F747269616E676C65732E62696E504B01021400140006080000CC70623B0000000000000000000000003700000000000000
310
000000000000D50E00006662782F41393633353835312D344632462D344230382D423046372D3739314545314133324237412F617474726962757465732E62696E504B01021400140006080800CC70623B08DA0BD1900000004101000036000000000000000000000000002A0F00006662782F41393633353835312D344632
310
462D344230382D423046372D3739314545314133324237412F6469726563746F72792E786D6C504B01021400140006080800CC70623BEDD1DC58FD000000A00100003B000000000000000000000000000E1000006662782F41393633353835312D344632462D344230382D423046372D3739314545314133324237412F7265
310
736F75726365732F636F72652E786D6C504B0506000000000E000E0080040000641100000000
  0
XRECORD
  5
1F8
102
{ACAD_REACTORS
330
1F7
102
}
330
1F7
100
AcDbXrecord
280
     1
 70
     1
 90
429727718
  1
30362254-06B7-45E0-A893-8CFA70E3D6BC
310
504B03040A0000080000CC70623B3DEE336E79000000790000001B0000006175746F6465736B2D64657369676E2D7061636B6167652E786D6C3C3F786D6C2076657273696F6E3D22312E302220656E636F64696E673D227574662D3822203F3E3C666F726D6174733E3C666F726D61743E687474703A2F2F736368656D612E
310
6175746F6465736B2E636F6D2F64657369676E2D7061636B6167652F323030393C2F666F726D61743E3C2F666F726D6174733E504B0304140006080800CC70623BD486FD9CA0000000F4000000130000005B436F6E74656E745F54797065735D2E786D6C7D8EC10E82300C865F65E91D8A1E8C310C0EEA1BF002731658846E
310
D98AC1B77784ABF1D8FE5FBFBF75BBCE937A534CCEB38643598122B6FEE978D0B0485F9C41B54DDD7D022595594E1A469170414C76A4D9A4D207E29CF43ECE46F218070CC6BECC4078ACAA135ACF422C856C0E68EA1BF5669944DDD7BCDE7B1F8E415D77AECB980613C2E4AC91FC167A2B244592486606FC29C8FD7F045B9A
310
EF7053A7E60B504B0304140006080800CC70623B1EC5D7A3EB0000007C01000008000000636F72652E786D6C8D90416EC3201045AF82665B6103C6756C6122AB4D4ED00B204C5C94182C03558F5F9C3852BBEB6A467FFE9B197D71FC9E6FE8CBACC17AD7032D0820E3B41FAD9B7A48F1820F808E52ACDEC75F36404ECDA687
310
4D0629A6D5A76597B477D1B89855E747B38B2A041301E95B6E7A08FAD3CCAA50296647B8168BD2573599823EBB0CA76447F43862C7BCCF5EAC59410E4DDD9C7973C2755553CCCFA4C603E3040F1565ED3B1FDE4E432BCA0D9622DAF9795FAF464533826484B498524CD807E51D79ED187F21878E10516EF63F505AC67F42C9
310
BA58B1FDDD071640D2FCC87D2045B96591CB3DA85CB7DCE40F504B0304140006080800CC70623B55019EA25F0000007C00000007000000636E782E786D6C4DCB3B0E80201045D1AD90E915ED2CF8AC45050C11660C8261F98AB1B07AC9C97D42D718D865D3E909258CFD00CCE24AC6E326A164D74DC0B4128928FF32603847
310
2BA13128B1252AC747C6BAB984FC68F0B87FE8960A5C09FE86CFB69FBA01504B0304140006080800CC70623B8C9102E971010000D40300000C0000006662782F636F72652E786D6CC5535B6E833010BC8AE5DF0A6C08340F1947A84D4ED00B38C6A128602363A31CBFCB234A53A551FA553EC09AD9F5CE8C31DB9E9B1AF5CA
310
7695D1198E428A91D2D214952E33ECDD315861B4E5CC1AE3BE9561A445A3323CC098B3D21ADFCE9034DA29ED00D5A6503328BA4E398C640D8B0C77F253352214DE4145770A5B214FA2546114020D759C75CE8200340D19DE981F0F6746269C33EFAB6266AB02A655C74A59CCF365BADC27CB5D902ED22848F6340DF238A141
310
BE88E2F57B92BFEDF23523433367AE6A2EEAA455C2A902F398D2751045018D3FA264435F3771F242571B4A1919CA6F9A7C5B3CD9E42BED16F12C776AEB308F40C848FC700B1139D4891EF410CEC810227CC6846F8386402064270EF5C5C709A05E49676C024C61FC95EA45ED154CA5211D1FF4FB8291A913A68E9B83EBBB33
310
E2A7673CDE118E5AE8124C0807CB8377834E366998436B950D7A7746DAD846D4CFD978E0F04FD455FC5D49D2D4C6FE9722321F10997F0F32DC47FE05504B0304140006080800CC70623BFFEA85907E0000009D0000000B0000006662782F636E782E786D6C4DCCD10A83201886E15B91FFDC95D95A811AB6F23E625948A6C3
310
E9D8E5AF46073BFAE0E1E365ED67B3E8ADC3CB78C7815C7240DA3DFC64DCC221C519D7805AC182F7F1EF06C88D9BE6703008B6049F9E274D7A1E938DBB5AE3D6131B2589BA0D3D965551E0B2EA732C9B9A624AAEB41E3A557677029960D9AFB4EF11165F504B0304140006080800CC70623B4FEEA4082C0100001202000031
310
0000006662782F39464131463745442D413632322D343644302D413938332D3331353338454246344243312F636F72652E786D6C8D515B6EC32010BC0AE2AB55850DD871ED0813254D72825EC00192A2C460F1A872FC42ED48ED5F7E00CDCECCCEB26C731F6FE05B39AFADE921293004CA082BB5B9F43086336A21D870E6AC
310
0D7F68109861543DCC30E4ECE26C9C164858139409093556AA051CBC570102714B8F1E7AF1A5C6A11862480C7F2DA6415C878B2A4891CA89C7990F2E050073937C42DE1DB7E4F87ED8A36D4329AA9B3D46DBAEAD504556557BD81DEBDD0761E52CE42C462D17B996298E3E6BE59E35C962CE821E1FF18553435012728A7187
310
0841987E927A8D9B35ADDF70BBC6989599FE4F1427F9A4286A132ABAC49D651EF234CD5CE04CDA78BA3DC2A8FB645D00B9DF8B57E215725C60BCA2A463E54C4CE327C7A65E1C7DB02E7DEFCBF594B864C5CA6CDBD49C957943E9FA5D5FBAF336F90F504B0304140006080800CC70623BAD7543B64E01000033030000300000
310
006662782F39464131463745442D413632322D343644302D413938332D3331353338454246344243312F636E782E786D6CD593CD6EC32010845F0571AD6CE3D48AD20813A9873E410FBD12D82434182C7EAAE6EDBB2424CD25871E7B41D6EC30B3FA84F9E67BB2E40B4234DE8DB46F1925E094D7C6ED479AD3AE5951B2113C
310
789FEE6C943839C1488B4C05DF079FE72A69D8C96C13AAD6B8631503449F83828872B949AC57D26200B826A308D316B4064D6E46FCDA41C05550DC9E483A00797BFD207EFB092A45DE9514C1BBD22178396BD39D891265658C238DEA00936C654E5E433CB65A26D9F6EDB5EBC14EBF49A45CB856E66048291F6939A9A81BB5
310
C8917738143CA680F4AA299D66A042CEB3354A2684DC9D8D178FE0D9B8B41CAAD720F880EE7EF93C0C18769E099ECC04D5A102C8049A8A05632F4DDF376CF1DE0F6BB65C2F8627B65A33C6BB62177CEBBDAD973006829F89F22E814B54F4BC2BE347F8AA8F681390B50FA73F804400B5F542E796F19FF974E7F78DB802FE05
310
E207504B0304140006080800CC70623B16AB87BA640500003C100000340000006662782F39464131463745442D413632322D343644302D413938332D3331353338454246344243312F6F626A656374732E786D6CAD575B6FA33818FD2B887DE6924B3BED8A326A92B68A663B534DD4D13E548A0C38942D60649B369D5FBFC7
310
600890A493BDE42160637FD7F31D7FF63E6FB3D478A55C242CBF3247B66B1A340F5994E4F19559CA8D75611A9F7D8F33263BCB4C232719BD32D5B4E97B316765A1A722BA21652A07B3B7B33F0D11D29C9A46981221AE4C113ED38CD8A4942CA2E2C58E882476BCD9DA23BB5ED8171B73523C0F841684D35CC252CCE79062D4
310
468DFA43D7747CCF51DF7D4FFDEB5593E3AB9CCA9FBEFE241792E4E19EB28198C968BAB8199F5D5A67D3E9C49A9E8F47D6EC76B6B0469F26EEFC7C3EBFBCBEB98462213924694B38DD98FE1D62C393D073EA4FADC5DAF04326852CCF6958F90F0F2B9BB5C48816348F90C7840A68EB78EDF68723159BCEE7891A6B95DDE9D3
310
BCEAEEE8086A6C6F9E5D4B59F0175C10A7A0820BAA5055C7473B5AE3CFDD452D602CD5DF12616444529E90D448938013FE6EFA58AA96F85E4F8C42275708571E98FE6827AF6B2B4AE3D7D83D64E5A64C53054DD3AF90BD06FEA9149565C94FCA0F6B834DC85599E4F2423B24DF0B6AFA979E534DFA9E7A4CC6FA631D486393
310
921829879BF5D781A373557BCB85E97FB90DB62B558F8795179C15944B051F40AB495CF35451D26A4727654E6D8033BD98EF82F21D91FF8AF2DD9982BCF1643BDD4EB516C9492E368C67C88DED563FC36D5EACF66DFF057C3658BDBFA69DF9578B3DA735B64F18C7F20770A9D45CFCF7FCF563D6456A277DBEF78A02637CA2
310
43B90A490AEAB94F72244481D24819A6C0E59B606BFA4B3025981DBB48EAB701D97BF19C577CC77F2D1B6C55A9EF3C732474C0B727303F625995056C3B02963D9EAC146BE78EC5FCEC7FA999EBC5EACBAAE41B12D27B4D2C0BBA49F244E2ECDC81B76B502F113D8F5EE8FB1BE3111CDD4FC2AA9B844CAB1288B68AB90A7CDC
310
1C166AB0D3DC5310625FCC14E779BFD0709F8890A629C9292B1B2DED31A4B0DA928CEE135085754027E3018A397D4D5427D15BD1330B677DC8934285AC3DF45A9EB68FF8F2B8FC0A509AFEECFD0FF2DE25CC6047F7214B195F07EFEB9A094D800F7BFAE8FED187B78EA8A3A400F115961BCAD1215E47C966530AF0EE8128FE
310
58CEBB996A8964FFA529A046635D9353B0336A8F700DDF46271A024E70B0B37C9DE01847591E54DED53D54202AB947E4076556AC49C6CA5C9E1226B7F1A7B1BE15DEED62C41B91E1B3E9AFAAA735036547343A925075041DF0A9979E893B391F8FCFA6967B3EFB644DCF6E5CEBFAE272625DCC6FAF3FB93793C5F90CE1EF57
310
407342756B10D1C489E8953CD1617E5CEECAD6F4EF8914CE5D5D504E5C3F1F9736DA62CFC11E00BCDDB8CC8A9466349744C1F75EBDA4DF09BA8A9E8C7A7E9991989E20E5DBDD6A6003664ED8F7A04A8DBE0DF6EAD9B9AA858342E47399053949D2C146EDB85DE4B176BB0965FBAC19BD19AA918E27FA50C1D22402E144464C
310
59462568E704B6E71915404CB72B8FF4EDE184DDAF753F284990D2C6926782963815403548A70C657FDEF80D2D9CEAA2AE4C1C76F60BFE74219A06527D6582DF6412526107381E55E353090704D085B52408D0933C4ED159D79BDA71BB4BC506F4831350EB6F979CD22D69BF7AC49B91A2C0A9DDA3D5CA36AD20FC478E37E6
310
1844E2352865EBCB6EA275A652E3836BE04EFB400BF1A2556F515F1FBB35B2AB35BD889C744FFA1004B5544B121E57F70215746DD2F5E2C1412B602CBF19455AC6C8E5E9922C4E01E65215385004546899059180EAFCF7A707CE7017CD8CDB0410789AB32C63B91E5CEBBBACB17AC6CD347A022D5075FD106377347AAABA7E
310
7D11590744509B44E205134DC1290F06580320F78E537D3D73540E06CB970B431F185308AD40BBD794D6D77003C5A36E8EAA54BA64597CD8F83BD552A080A365F7FF06504B0304140006080000CC70623B000000000000000000000000350000006662782F39464131463745442D413632322D343644302D413938332D3331
310
353338454246344243312F76657274696365732E62696E504B0304140006080800CC70623BF270F1330600000004000000360000006662782F39464131463745442D413632322D343644302D413938332D3331353338454246344243312F747269616E676C65732E62696E636660600000504B0304140006080000CC70623B
310
000000000000000000000000370000006662782F39464131463745442D413632322D343644302D413938332D3331353338454246344243312F617474726962757465732E62696E504B0304140006080800CC70623B08DA0BD19000000041010000360000006662782F39464131463745442D413632322D343644302D413938
310
332D3331353338454246344243312F6469726563746F72792E786D6C858F410AC3201045AF22B36F53E9A60B35CBEEBAE80D244E44489C6234F4F835464A48035D0DF398FF9F8AF63D0E6CC63039F212F8F9020C7D47C6792B21C5FE7403D62A1188E2E60C98D7234A5830286103A55745067B9D86B8A3CF9C7F90C11DE607
310
FB144396D7B6A82D282E9A152AD114D5EF2CB866EEE831B8EEA07A7BB5A8D7D61A2BAAEB7FD5F70921FF497D00504B0304140006080800CC70623B0D6EF93BFE000000A00100003B0000006662782F39464131463745442D413632322D343644302D413938332D3331353338454246344243312F7265736F75726365732F63
310
6F72652E786D6C8D50596E833010BD0A9ADFCA60B334011947A8694ED00B586642AC041B79A97AFC9A40A5F6AF3F33A3B7689E1E3F7DCD8FEC139DD7D6F4C0720A191A65476DA61E62B892236427C19DB5E1970C322367EC618541F0C9D9B8EC90B226A009093576C41D94DE63804C3DD2D18357379C652E63480A7FCF17A9
310
EE72C29CE5894E3AC17D702940B63D59270887DE46A7D0F36263058F518FBB468FE9A7BE6A7420864373B8D4873369AA8691FA421B3294352543C5CAF65C0F6FEF43CB8BD52C78D0F34F46E550061C419494B6843142CB0F5677F4B52BEB177AEC28E5C52AFF638ACBF84F53D42654E51E77B379102C05791282176B5F693D
310
CB4C7BED567C03504B010214000A0000080000CC70623B3DEE336E79000000790000001B00000000000000000000000000000000006175746F6465736B2D64657369676E2D7061636B6167652E786D6C504B01021400140006080800CC70623BD486FD9CA0000000F40000001300000000000000000000000000B20000005B
310
436F6E74656E745F54797065735D2E786D6C504B01021400140006080800CC70623B1EC5D7A3EB0000007C010000080000000000000000000000000083010000636F72652E786D6C504B01021400140006080800CC70623B55019EA25F0000007C000000070000000000000000000000000094020000636E782E786D6C504B
310
01021400140006080800CC70623B8C9102E971010000D40300000C00000000000000000000000000180300006662782F636F72652E786D6C504B01021400140006080800CC70623BFFEA85907E0000009D0000000B00000000000000000000000000B30400006662782F636E782E786D6C504B01021400140006080800CC70
310
623B4FEEA4082C0100001202000031000000000000000000000000005A0500006662782F39464131463745442D413632322D343644302D413938332D3331353338454246344243312F636F72652E786D6C504B01021400140006080800CC70623BAD7543B64E010000330300003000000000000000000000000000D5060000
310
6662782F39464131463745442D413632322D343644302D413938332D3331353338454246344243312F636E782E786D6C504B01021400140006080800CC70623B16AB87BA640500003C1000003400000000000000000000000000710800006662782F39464131463745442D413632322D343644302D413938332D3331353338
310
454246344243312F6F626A656374732E786D6C504B01021400140006080000CC70623B0000000000000000000000003500000000000000000000000000270E00006662782F39464131463745442D413632322D343644302D413938332D3331353338454246344243312F76657274696365732E62696E504B01021400140006
310
080800CC70623BF270F133060000000400000036000000000000000000000000007A0E00006662782F39464131463745442D413632322D343644302D413938332D3331353338454246344243312F747269616E676C65732E62696E504B01021400140006080000CC70623B0000000000000000000000003700000000000000
310
000000000000D40E00006662782F39464131463745442D413632322D343644302D413938332D3331353338454246344243312F617474726962757465732E62696E504B01021400140006080800CC70623B08DA0BD190000000410100003600000000000000000000000000290F00006662782F39464131463745442D413632
310
322D343644302D413938332D3331353338454246344243312F6469726563746F72792E786D6C504B01021400140006080800CC70623B0D6EF93BFE000000A00100003B000000000000000000000000000D1000006662782F39464131463745442D413632322D343644302D413938332D3331353338454246344243312F7265
310
736F75726365732F636F72652E786D6C504B0506000000000E000E0080040000641100000000
  0
XRECORD
  5
175
102
{ACAD_REACTORS
330
173
102
}
330
173
100
AcDbXrecord
280
     1
270
     1
271
     1
  0
XRECORD
  5
174
102
{ACAD_REACTORS
330
173
102
}
330
173
100
AcDbXrecord
280
     1
270
     1
271
     1
  0
XRECORD
  5
1FB
102
{ACAD_REACTORS
330
173
102
}
330
173
100
AcDbXrecord
280
     1
 70
     0
 90
1673772943
  1
ECE7A1D2-D628-4531-984C-D00F80459256
310
504B03040A0000080000CC70623B3DEE336E79000000790000001B0000006175746F6465736B2D64657369676E2D7061636B6167652E786D6C3C3F786D6C2076657273696F6E3D22312E302220656E636F64696E673D227574662D3822203F3E3C666F726D6174733E3C666F726D61743E687474703A2F2F736368656D612E
310
6175746F6465736B2E636F6D2F64657369676E2D7061636B6167652F323030393C2F666F726D61743E3C2F666F726D6174733E504B0304140006080800CC70623BD486FD9CA0000000F4000000130000005B436F6E74656E745F54797065735D2E786D6C7D8EC10E82300C865F65E91D8A1E8C310C0EEA1BF002731658846E
310
D98AC1B77784ABF1D8FE5FBFBF75BBCE937A534CCEB38643598122B6FEE978D0B0485F9C41B54DDD7D022595594E1A469170414C76A4D9A4D207E29CF43ECE46F218070CC6BECC4078ACAA135ACF422C856C0E68EA1BF5669944DDD7BCDE7B1F8E415D77AECB980613C2E4AC91FC167A2B244592486606FC29C8FD7F045B9A
310
EF7053A7E60B504B0304140006080800CC70623BD9DDAED0EC0000007C01000008000000636F72652E786D6C8D90416EC3201045AF82665B61836D9CD8C2444DD39CA01740405C94182C03558F5F9C3852BBEB6A467FFE9B197D7EF89E6EE8CB2CC17A37002D0820E394D7D68D03A478C17B4007C117EFE32F1B20272733C0
310
2A83E0E3E2D3BC49CABB685CCCAAF3DA6CA20CC14440EA969B0182FA34932C648AD911AEC52CD5558EA6A0CF2EC329598D1E47ACCEFBECC59A050463A7EA5833865FEBDD0E37353BE3EE8DBDE3F6786A48D375FBF6CC78B9C282473B3DEFABC5C86834888A900E538A49F5419B9EB47DD5BC907D4F082F57FB1F28CDFA9F50
310
B22ED6D5F6EE030B20687EE43E10BC5CB3C8E51E54AE6B6EE207504B0304140006080800CC70623B55019EA25F0000007C00000007000000636E782E786D6C4DCB3B0E80201045D1AD90E915ED2CF8AC45050C11660C8261F98AB1B07AC9C97D42D718D865D3E909258CFD00CCE24AC6E326A164D74DC0B4128928FF326038
310
472BA13128B1252AC747C6BAB984FC68F0B87FE8960A5C09FE86CFB69FBA01504B0304140006080800CC70623BA24EB22D72010000D40300000C0000006662782F636F72652E786D6CC5535B6E833010BC8AE5DF0A6C5E49888CA3A6694ED00B38E05014B091B1518EDFE511A5A9D228FD2A1F60CDEC7A67C6986DCE4D8D7A
310
69BA4AAB0C073EC548AA5C17952A33ECECD15B61B4E1CC686DBF9561A44423333CC098B3D268D7CE50AE9595CA02AA74216750749DB418E5352C32DCE59FB211BE70162ABA93DF8AFC244AE9073ED050C759670D0840D390E18DF9F1706664C23973AE2A66B62A605A75ACA4C13C4976E1364A12EF355A2EBD384AF65EFA96
310
BC7B8BED2EA6719AAE16FB8491A199335B351775B991C2CA02F390D2D40B028F861F41BCA68B7518BFD0D59A524686F29B26D7164F36B94AD9289CE54E6D1DE6010819891F6E21228B3AD1831EC219194284CF98F06DD01008846CC5A1BEF83801D4CBDC6A1303536877A57A513B0953A94FC707FDBE6064EA84A9E3E6E0FA
310
EE8CF0E9198F7784A316AA0413C2C2F2E0ECA0934D1AE6D05A69BCDE9E91D2A611F573361E38FC1375157F5752AE6B6DFE4B11990F88CCBF0719EE23FF02504B0304140006080800CC70623B408A7D3B7C0000009D0000000B0000006662782F636E782E786D6C4DCCD10A83201886E15B91FFDC552A92A0064DBC8F581632
310
D3703A76F9ABD1C18E3E78F878E5F0D9027ABBFCF2292AE86E2D20171F69F6715550CB827B40839639A5F2770314A7CD293819B45C73AAFB45B35BA61ACAA1C1C7E7855C58C15BC331339661262CC762340413D68D77DA5B42298546CBE6573AF60CEB2F504B0304140006080800CC70623B449FB9BD290100001202000031
310
0000006662782F36394639363044362D344446342D343946362D394244322D3234314243333846323333332F636F72652E786D6C8D515B6EC32010BC0AE22B55850D98B871848994463E412FE002495162B07854397EA176A4F62F3F2C9A9D991D587EB84F37F0AD7D30CEF6905418026DA553C65E7A98E219ED203808EE9D
310
8B7F6810D871D23D2C3014FCE25D9A57483A1BB58D19B54EE9151C43D0110279CB971E06F9A5A7B11A53CC8C70ADE6515EC78BAE4895DB992778883E0700CB907242D17643D7E2538BD869608875438BBAE38922CAC8F1BDD90DB4691A5E2F42C153326A951B95E398B3D1FE599322163C9AE9115F7A3D46ADA0A018778810
310
84E907617BDCEE297BC5BB3DC6BC2EF47FA234AB2745C9D8D8D035EE220B50105E2F0DC1954B9FB747187D9F9D8FA0CCDB042D5FA0C015C65B42DF78BD10F3F3B363CB56C7109DCFDFBBB97E662ED92EB62D13BC2E1BCAE5777DB9966D8A1F504B0304140006080800CC70623BAD7543B64E01000033030000300000006662
310
782F36394639363044362D344446342D343946362D394244322D3234314243333846323333332F636E782E786D6CD593CD6EC32010845F0571AD6CE3D48AD20813A9873E410FBD12D82434182C7EAAE6EDBB2424CD25871E7B41D6EC30B3FA84F9E67BB2E40B4234DE8DB46F1925E094D7C6ED479AD3AE5951B2113C789FEE
310
6C943839C1488B4C05DF079FE72A69D8C96C13AAD6B8631503449F83828872B949AC57D26200B826A308D316B4064D6E46FCDA41C05550DC9E483A00797BFD207EFB092A45DE9514C1BBD22178396BD39D891265658C238DEA00936C654E5E433CB65A26D9F6EDB5EBC14EBF49A45CB856E66048291F6939A9A81BB5C89177
310
38143CA680F4AA299D66A042CEB3354A2684DC9D8D178FE0D9B8B41CAAD720F880EE7EF93C0C18769E099ECC04D5A102C8049A8A05632F4DDF376CF1DE0F6BB65C2F8627B65A33C6BB62177CEBBDAD973006829F89F22E814B54F4BC2BE347F8AA8F681390B50FA73F804400B5F542E796F19FF974E7F78DB802FE05E20750
310
4B0304140006080800CC70623B8D05915C650500003B100000340000006662782F36394639363044362D344446342D343946362D394244322D3234314243333846323333332F6F626A656374732E786D6CAD575B6FA33814FE2B887D06429276DA1565D4266D158D3A339A6846FB502932E050B66023DB74D2FDF5FB190C01
310
9276B2973C046C8ECFF53B17071F77456EBD502133CEAE6CDF9DD81665314F32965ED995DA3A17B6F5310C04E7AA47665B8C14F4CAD6DB7618A48257A5D94AE89654B91AEDDEDDFC61C998326A5B714EA4BCB265FC440BE2924AF184CA6737218AB8E976E7FA6E4338649B0A523E8D98964450A6A029F619B8588D52FE7039
310
B1BD30F0F4F730D0FF866AF6369557DB33949F31A9088B0F848DD8CCFCF9F2767A76E99CCDE733677E3EF59D9BBB9BA5E37F984D16E78BC5E5F5ED25044B25C0C96822E8D60EEFE11B91C581D77CEA34368A1F5329E68CD1B8B61F16D63A1B8E092D294B10C78C4A48EB593D192E7DED9BDEE7995E1B91FDEDD3ACEA9FE831
310
6A756F9F7D4D79F4274C90A7A04248AA51D5F8C718DAE06FB2F75AC4796EBE65D22A88A22223B995679120E2D50E41AA49C260C046A35368846B0BECD0DFF3EBEB8AD4F835768F69B9ADF25C43D30E6B646F807FAA64AD59F61715C7A54127C4AACA98BA3006A9D792DAE165E0D59B61A01FB3A9F9D838D2DAE62445C86166
310
F37564E842E7DE6A69879FEEA2DD5AE7E371E1A5E025154AC307D06A03D73EB5978C58FFA4C8E9033066E0F3BD53BEC1F39F91BE7B55103791EDE6BBB991A2046172CB4581D8B893FA674DDA17A77B3B7C413D1B511FD2743BFF8A38F03A658705E3ADF8015C3A3417FF3D7E439FF591DA0B5F18BC20C1B8981957AE6392A3
310
F43C640C01D1A0B4728E2DD4F26DB4B3C3152A252A3B4E913CEC1C72F012782FF88EFF8637AA552DBEF76408E8A8DE9E50F9E1CB3A2DA0DB1B6039A893B56063DC5B3E3FFB5F72E67AB9FEB4AEC496C4F4C1149625DD662C53E89D7BF0F6151A046260D1337DFDC94502430F83B0EE07A130A224BCAD7DAE1D9FB6CD422FF6
310
920702629C4BB9AE79C12F243C6432A6794E18E5552BA56B431AAB5D91317302B2B071E86C3A42B1A02F999E24061403B5D0EB639195DA655DD3EBEAB4FB862DDF579F014AD0E73C22F99E28DA57FB98E75C6CA2D74D53086D600F4786E0FE3144B771A8A7B900F03594DB8A633CBC49B2EDB69228BB479CF863B5E807AAAB
310
23872F6DFEB4129B949CA33823F58830E86D65621E10047D9DB34D862E8EAC3C2ABC2F7B2C40D67CDFE01F5545B92105AF983AC54D93D69E56FB8E797F88913F898A9FEC705D3F9D1B54EC8426FB500D40A03BD0119B06E1B95DDC7EB8F6975367793EBD70E66733DFB9BC982F9CE564727731999F5D4ECFCE3B8D6A4DC2A0
310
6D50FD148437D110834A64C6CDDF57FBACB5C307A2A477DFE4939736CFEF2B175371E0E10CF0DD1D5C15654E0BCA14D1E87DD02FF93782A162C0A3D95F1524A52770F972BF1EE9809D13CE7DD599467F8ECE9ADD85CE85A34CD45355448C64F9E8A031DC2D596ACC6E5DD93D9B82DE2EF5CAF81363A8E47996A0DE24564A79
310
4115AACE09C55E14540231FDA13C319787134EBF34E3A022514E5B4D9E0826E25C02D5805B15ABE1BEF51B26383D445DD9E875EE33FE4C22DA16427D65A3BCA92CA6D28DD01DF5DC53330704308475351050232CCD31583787BA75774AFB06E5070DD0C8EF484E19968C5D83BA5B90B244D31E54D55A372320FE4786B7EA58
310
44E135AA5467CB7EA333A61683CC6A8C3257034C10CF46F40EF9F5BE59BE5BD30C3C72D235E95D10345C1D45445A5F0BB47E46A5EBE5570F9380B5FA629579952296A773720405982B9DE04011506178964401AA8BDF1FBF0A8EAB6861DD6580C0E38217056766716DAEB2D6FA0917D3E4116581EADB879C4E7CFFB11EFACD
310
3D641311495D92C8676CB409A72D18610D803CE8A626049E8EC1887CB5B44CC39883690DDA8399B4B9855B481E7D71D4A9D22F96E5BB73BF5793020C02137BF837504B0304140006080000CC70623B000000000000000000000000350000006662782F36394639363044362D344446342D343946362D394244322D32343142
310
43333846323333332F76657274696365732E62696E504B0304140006080800CC70623BF270F1330600000004000000360000006662782F36394639363044362D344446342D343946362D394244322D3234314243333846323333332F747269616E676C65732E62696E636660600000504B0304140006080000CC70623B0000
310
00000000000000000000370000006662782F36394639363044362D344446342D343946362D394244322D3234314243333846323333332F617474726962757465732E62696E504B0304140006080800CC70623B08DA0BD19000000041010000360000006662782F36394639363044362D344446342D343946362D394244322D
310
3234314243333846323333332F6469726563746F72792E786D6C858F410AC3201045AF22B36F53E9A60B35CBEEBAE80D244E44489C6234F4F835464A48035D0DF398FF9F8AF63D0E6CC63039F212F8F9020C7D47C6792B21C5FE7403D62A1188E2E60C98D7234A5830286103A55745067B9D86B8A3CF9C7F90C11DE607FB14
310
4396D7B6A82D282E9A152AD114D5EF2CB866EEE831B8EEA07A7BB5A8D7D61A2BAAEB7FD5F70921FF497D00504B0304140006080800CC70623BCA768048FE000000A00100003B0000006662782F36394639363044362D344446342D343946362D394244322D3234314243333846323333332F7265736F75726365732F636F72
310
652E786D6C8D50596E833010BD0A9ADFCA60D600328E9AA639412F609909B1126CE4A5EAF16B0295DABFFECC8CDEA2797AECF8353F924FB44E193D409E5248504B332A3D0D10FC95B4901C39B3C6F85F3248B49871801506CE266BC2B243D2688FDA47549B11775038871E12F988C7004EDE7016A9083E2ADC3D5D84BC8B09
310
D33C8D74D471E6BC8D0192EDC93A815B742658898E651BCB59086ADC356A8C3FD555A1055ED7E7E254D615792D0F075295F585746FF53B694EE78A565DD736979A65AB9933AFE69F8CD2A2F038022F28ED489E135A7CE4554F9BBEA85E68DB53CAB255FEC71496F19FA6A0B42F8B3DEE6673C0F318E4497096AD7DC5F52C33
310
EEB55BFE0D504B010214000A0000080000CC70623B3DEE336E79000000790000001B00000000000000000000000000000000006175746F6465736B2D64657369676E2D7061636B6167652E786D6C504B01021400140006080800CC70623BD486FD9CA0000000F40000001300000000000000000000000000B20000005B436F
310
6E74656E745F54797065735D2E786D6C504B01021400140006080800CC70623BD9DDAED0EC0000007C010000080000000000000000000000000083010000636F72652E786D6C504B01021400140006080800CC70623B55019EA25F0000007C000000070000000000000000000000000095020000636E782E786D6C504B0102
310
1400140006080800CC70623BA24EB22D72010000D40300000C00000000000000000000000000190300006662782F636F72652E786D6C504B01021400140006080800CC70623B408A7D3B7C0000009D0000000B00000000000000000000000000B50400006662782F636E782E786D6C504B01021400140006080800CC70623B
310
449FB9BD290100001202000031000000000000000000000000005A0500006662782F36394639363044362D344446342D343946362D394244322D3234314243333846323333332F636F72652E786D6C504B01021400140006080800CC70623BAD7543B64E010000330300003000000000000000000000000000D20600006662
310
782F36394639363044362D344446342D343946362D394244322D3234314243333846323333332F636E782E786D6C504B01021400140006080800CC70623B8D05915C650500003B10000034000000000000000000000000006E0800006662782F36394639363044362D344446342D343946362D394244322D32343142433338
310
46323333332F6F626A656374732E786D6C504B01021400140006080000CC70623B0000000000000000000000003500000000000000000000000000250E00006662782F36394639363044362D344446342D343946362D394244322D3234314243333846323333332F76657274696365732E62696E504B010214001400060808
310
00CC70623BF270F13306000000040000003600000000000000000000000000780E00006662782F36394639363044362D344446342D343946362D394244322D3234314243333846323333332F747269616E676C65732E62696E504B01021400140006080000CC70623B00000000000000000000000037000000000000000000
310
00000000D20E00006662782F36394639363044362D344446342D343946362D394244322D3234314243333846323333332F617474726962757465732E62696E504B01021400140006080800CC70623B08DA0BD190000000410100003600000000000000000000000000270F00006662782F36394639363044362D344446342D
310
343946362D394244322D3234314243333846323333332F6469726563746F72792E786D6C504B01021400140006080800CC70623BCA768048FE000000A00100003B000000000000000000000000000B1000006662782F36394639363044362D344446342D343946362D394244322D3234314243333846323333332F7265736F
310
75726365732F636F72652E786D6C504B0506000000000E000E0080040000621100000000
  0
XRECORD
  5
176
102
{ACAD_REACTORS
330
173
102
}
330
173
100
AcDbXrecord
280
     1
270
     1
271
     1
  0
XRECORD
  5
177
102
{ACAD_REACTORS
330
173
102
}
330
173
100
AcDbXrecord
280
     1
270
     1
271
     1
  0
XRECORD
  5
268F
102
{ACAD_REACTORS
330
234
102
}
330
234
100
AcDbXrecord
280
     1
102
DISPLAYNAME
  1
Metric50
102
FLAGS
 90
        0
  0
CELLSTYLEMAP
  5
268E
102
{ACAD_REACTORS
330
162
102
}
330
162
100
AcDbCellStyleMap
 90
        3
300
CELLSTYLE
  1
TABLEFORMAT_BEGIN
 90
        5
170
     1
 91
        0
 92
    32768
 62
   257
 93
        1
300
CONTENTFORMAT
  1
CONTENTFORMAT_BEGIN
 90
        0
 91
        0
 92
      512
 93
        0
300

 40
0.0
140
1.0
 94
        5
 62
     0
340
11
144
6.0
309
CONTENTFORMAT_END
171
     1
301
MARGIN
  1
CELLMARGIN_BEGIN
 40
1.5
 40
1.5
 40
1.5
 40
1.5
 40
4.5
 40
4.5
309
CELLMARGIN_END
 94
        6
 95
        1
302
GRIDFORMAT
  1
GRIDFORMAT_BEGIN
 90
        0
 91
        1
 62
     0
 92
       -2
340
14
 93
        0
 40
1.125
309
GRIDFORMAT_END
 95
        2
302
GRIDFORMAT
  1
GRIDFORMAT_BEGIN
 90
        0
 91
        1
 62
     0
 92
       -2
340
14
 93
        0
 40
1.125
309
GRIDFORMAT_END
 95
        4
302
GRIDFORMAT
  1
GRIDFORMAT_BEGIN
 90
        0
 91
        1
 62
     0
 92
       -2
340
14
 93
        0
 40
1.125
309
GRIDFORMAT_END
 95
        8
302
GRIDFORMAT
  1
GRIDFORMAT_BEGIN
 90
        0
 91
        1
 62
     0
 92
       -2
340
14
 93
        0
 40
1.125
309
GRIDFORMAT_END
 95
       16
302
GRIDFORMAT
  1
GRIDFORMAT_BEGIN
 90
        0
 91
        1
 62
     0
 92
       -2
340
14
 93
        0
 40
1.125
309
GRIDFORMAT_END
 95
       32
302
GRIDFORMAT
  1
GRIDFORMAT_BEGIN
 90
        0
 91
        1
 62
     0
 92
       -2
340
14
 93
        0
 40
1.125
309
GRIDFORMAT_END
309
TABLEFORMAT_END
  1
CELLSTYLE_BEGIN
 90
        1
 91
        1
300
_TITLE
309
CELLSTYLE_END
300
CELLSTYLE
  1
TABLEFORMAT_BEGIN
 90
        5
170
     1
 91
        0
 92
        0
 62
   257
 93
        1
300
CONTENTFORMAT
  1
CONTENTFORMAT_BEGIN
 90
        0
 91
        0
 92
      512
 93
        0
300

 40
0.0
140
1.0
 94
        5
 62
     0
340
11
144
4.5
309
CONTENTFORMAT_END
171
     1
301
MARGIN
  1
CELLMARGIN_BEGIN
 40
1.5
 40
1.5
 40
1.5
 40
1.5
 40
4.5
 40
4.5
309
CELLMARGIN_END
 94
        6
 95
        1
302
GRIDFORMAT
  1
GRIDFORMAT_BEGIN
 90
        0
 91
        1
 62
     0
 92
       -2
340
14
 93
        0
 40
1.125
309
GRIDFORMAT_END
 95
        2
302
GRIDFORMAT
  1
GRIDFORMAT_BEGIN
 90
        0
 91
        1
 62
     0
 92
       -2
340
14
 93
        0
 40
1.125
309
GRIDFORMAT_END
 95
        4
302
GRIDFORMAT
  1
GRIDFORMAT_BEGIN
 90
        0
 91
        1
 62
     0
 92
       -2
340
14
 93
        0
 40
1.125
309
GRIDFORMAT_END
 95
        8
302
GRIDFORMAT
  1
GRIDFORMAT_BEGIN
 90
        0
 91
        1
 62
     0
 92
       -2
340
14
 93
        0
 40
1.125
309
GRIDFORMAT_END
 95
       16
302
GRIDFORMAT
  1
GRIDFORMAT_BEGIN
 90
        0
 91
        1
 62
     0
 92
       -2
340
14
 93
        0
 40
1.125
309
GRIDFORMAT_END
 95
       32
302
GRIDFORMAT
  1
GRIDFORMAT_BEGIN
 90
        0
 91
        1
 62
     0
 92
       -2
340
14
 93
        0
 40
1.125
309
GRIDFORMAT_END
309
TABLEFORMAT_END
  1
CELLSTYLE_BEGIN
 90
        2
 91
        1
300
_HEADER
309
CELLSTYLE_END
300
CELLSTYLE
  1
TABLEFORMAT_BEGIN
 90
        5
170
     1
 91
        0
 92
        0
 62
   257
 93
        1
300
CONTENTFORMAT
  1
CONTENTFORMAT_BEGIN
 90
        0
 91
        0
 92
      512
 93
        0
300

 40
0.0
140
1.0
 94
        2
 62
     0
340
11
144
4.5
309
CONTENTFORMAT_END
171
     1
301
MARGIN
  1
CELLMARGIN_BEGIN
 40
1.5
 40
1.5
 40
1.5
 40
1.5
 40
4.5
 40
4.5
309
CELLMARGIN_END
 94
        6
 95
        1
302
GRIDFORMAT
  1
GRIDFORMAT_BEGIN
 90
        0
 91
        1
 62
     0
 92
       -2
340
14
 93
        0
 40
1.125
309
GRIDFORMAT_END
 95
        2
302
GRIDFORMAT
  1
GRIDFORMAT_BEGIN
 90
        0
 91
        1
 62
     0
 92
       -2
340
14
 93
        0
 40
1.125
309
GRIDFORMAT_END
 95
        4
302
GRIDFORMAT
  1
GRIDFORMAT_BEGIN
 90
        0
 91
        1
 62
     0
 92
       -2
340
14
 93
        0
 40
1.125
309
GRIDFORMAT_END
 95
        8
302
GRIDFORMAT
  1
GRIDFORMAT_BEGIN
 90
        0
 91
        1
 62
     0
 92
       -2
340
14
 93
        0
 40
1.125
309
GRIDFORMAT_END
 95
       16
302
GRIDFORMAT
  1
GRIDFORMAT_BEGIN
 90
        0
 91
        1
 62
     0
 92
       -2
340
14
 93
        0
 40
1.125
309
GRIDFORMAT_END
 95
       32
302
GRIDFORMAT
  1
GRIDFORMAT_BEGIN
 90
        0
 91
        1
 62
     0
 92
       -2
340
14
 93
        0
 40
1.125
309
GRIDFORMAT_END
309
TABLEFORMAT_END
  1
CELLSTYLE_BEGIN
 90
        3
 91
        2
300
_DATA
309
CELLSTYLE_END
  0
ENDSEC
  0
SECTION
  2
ACDSDATA
 70
     2
 71
     6
  0
ACDSSCHEMA
 90
        0
  1
AcDb_Thumbnail_Schema
  2
AcDbDs::ID
280
    10
 91
        8
  2
Thumbnail_Data
280
    15
 91
        0
101
ACDSRECORD
 95
        0
 90
        1
  2
AcDbDs::TreatedAsObjectData
280
     1
291
     1
101
ACDSRECORD
 95
        0
 90
        2
  2
AcDbDs::Legacy
280
     1
291
     1
101
ACDSRECORD
  1
AcDbDs::ID
 90
        3
  2
AcDs:Indexable
280
     1
291
     1
101
ACDSRECORD
  1
AcDbDs::ID
 90
        4
  2
AcDbDs::HandleAttribute
280
     7
282
     1
  0
ACDSSCHEMA
 90
        1
  1
AcDbDs::TreatedAsObjectDataSchema
  2
AcDbDs::TreatedAsObjectData
280
     1
 91
        0
  0
ACDSSCHEMA
 90
        2
  1
AcDbDs::LegacySchema
  2
AcDbDs::Legacy
280
     1
 91
        0
  0
ACDSSCHEMA
 90
        3
  1
AcDbDs::IndexedPropertySchema
  2
AcDs:Indexable
280
     1
 91
        0
  0
ACDSSCHEMA
 90
        4
  1
AcDbDs::HandleAttributeSchema
  2
AcDbDs::HandleAttribute
280
     7
 91
        1
284
     1
  0
ACDSRECORD
 90
        0
  2
AcDbDs::ID
280
    10
320
197F
  2
Thumbnail_Data
280
    15
 94
     1931
310
89504E470D0A1A0A0000000D49484452000000B40000010008030000002D3FACD700000300504C5445FFFFFF000000C8C8C80000000000000000000000000000000000000000000000000000330000660000990000CC0000FF0033000033330033660033990033CC0033FF0066000066330066660066990066CC0066FF0099
310
000099330099660099990099CC0099FF00CC0000CC3300CC6600CC9900CCCC00CCFF00FF0000FF3300FF6600FF9900FFCC00FFFF3300003300333300663300993300CC3300FF3333003333333333663333993333CC3333FF3366003366333366663366993366CC3366FF3399003399333399663399993399CC3399FF33CC00
310
33CC3333CC6633CC9933CCCC33CCFF33FF0033FF3333FF6633FF9933FFCC33FFFF6600006600336600666600996600CC6600FF6633006633336633666633996633CC6633FF6666006666336666666666996666CC6666FF6699006699336699666699996699CC6699FF66CC0066CC3366CC6666CC9966CCCC66CCFF66FF0066
310
FF3366FF6666FF9966FFCC66FFFF9900009900339900669900999900CC9900FF9933009933339933669933999933CC9933FF9966009966339966669966999966CC9966FF9999009999339999669999999999CC9999FF99CC0099CC3399CC6699CC9999CCCC99CCFF99FF0099FF3399FF6699FF9999FFCC99FFFFCC0000CC00
310
33CC0066CC0099CC00CCCC00FFCC3300CC3333CC3366CC3399CC33CCCC33FFCC6600CC6633CC6666CC6699CC66CCCC66FFCC9900CC9933CC9966CC9999CC99CCCC99FFCCCC00CCCC33CCCC66CCCC99CCCCCCCCCCFFCCFF00CCFF33CCFF66CCFF99CCFFCCCCFFFFFF0000FF0033FF0066FF0099FF00CCFF00FFFF3300FF3333
310
FF3366FF3399FF33CCFF33FFFF6600FF6633FF6666FF6699FF66CCFF66FFFF9900FF9933FF9966FF9999FF99CCFF99FFFFCC00FFCC33FFCC66FFCC99FFCCCCFFCCFFFFFF00FFFF33FFFF66FFFF99FFFFCCFFFFFF0000000D0D0D1A1A1A2828283535354343435050505D5D5D6B6B6B787878868686939393A1A1A1AEAEAEBB
310
BBBBC9C9C9D6D6D6E4E4E4F1F1F1FFFFFF000000000000000000000000000000000000000000000000000000000000B0E2D235000004064944415478DAEDDD5192AB2010055076C04AD8FF9F2BF1AB5732A899049406A2A81773A9A99ACA988A27BC06B1419E31D25F31C6FFF45788269A68A28926FA3CF4085F5268F4EA25
310
9A68A289269A68A22BD1C10D3BD1D7A0E531316D7DC147DB72414417EB1E105D8E18A289EE0B1DF70FD1ABE5052ABABB2E4F0F010B1ED344134DF4C5E85587E607D64E6C6A2ED2FA03D32F0874F46B7A9B734A4DBBF9A60106FDBE66CC6F53D0CEC0A2876C81443B33B99498F6DFC8C70E604D3B8FD67A0F8F764E901AE27F
310
195E7DC8B6A67D2D438547D07B4C359D84C9729068A289269A68A20BE8D7F53B1C30F585DEB3B801005D59D3441F6C88A321FA1AF4B2F8B78C3E79268C684C342FE32037B6F2CA2F40D6B49ED910D0BBF1394BA0A2B1F21E61866990253DBA2EDE3BA5C510334C3DE6F296AC69FAD31C6CAA5794E0F81C8040276602E0D170
310
8568A289269A68A289269A68A289269A68A289269AE8528937C0E9102DB7A3EB2472E1176BF568DFEA98F20886B451370A8F35E0DC0747DAA037E60E1AE2C5E626E8ABCD3B6702B2C5EA2DACFA33E4387A53AF4EAB6897EBFDDEAD53B27DA4143BD05DE8C1A965A847E76AB935DAC3E222F14BA74D424711A6D6B52CDFA779
310
4DBBC129F5341FD2AAC95773FC00A0B69241CE098F68E9848427CC84C78C0E635A5D7E0184FE7C14D144134D34D144DBE01EAF0E9D1E3CAC4779443F001DDE578FB5313D1A20F47804FD6988CBC05452DBDB9C813EF8C8880D6E07D2C911D82E2FB717C87D68F5A61AF4E2322DAE87447FB5553B2FE3443F197D6F0A412D99
310
64CD3A91A9276BE484B498CBA2D5B498A94E8B9933B2A6834987879B0F552620736883838E1B6227E85B6B3A9FEAED223CA49398367A781818F477134599CDA3E28FD036EB29EE3FD5603B4529BE43794366AB2FA29F835E8FF77B424B4F68B3233CA2AD4437BB8C5A48F4C15D460FA31367400C8F1E3763052844134D34D1
310
44134D34D144134D34D10AFAC2E758884651B32112DD065D3D1380B47954B8B798E6CA3F0C72393ADE104D326658B402034487E9C55C30A3A0831C78A99DE134C4109D65979FACB9181D2D3049870758EF117579D9A53C44134D34D144DF3A60FA9FBC565799C3A2D353B3023D9EEE2E3CD810897E3CDA76878E3A3EA2895E
310
C7342E3A73631B26F74CC58E2237E53D24F92FF0C92120D6F4F287544DDBAA6CCE5D630F6DC9257602521E84061C9A7E6602EC7B3D7F3435F0FA33E87FDD6DB5C5AD76DB9D104D343C3A5EFF1E761FAF87EE896E886EB0527D3C50BE46AF86A3C90BD097D5557BDAFD35DD121D4DE5A93B936E4660F74DE8137D25FAD2986E
310
82BEBAF7F8DD9A0E027775DAD2D217A27F04CDDE8335AD9E390ED8F569F5157344FF00FA110DD1F4D110FB45EFD8A88CE85BD1F02581EEA9104D34D144134D747B747FE50F86E3567BDC35BA640000000049454E44AE42608233E688FE01F457EC88CEC68E6817FDC14265445F8A866F05B4994634D14413FD6B68736D40CD
310
F28C26F6DA1F890ECC399E9F2B3C0000000049454E44AE426082
  0
ACDSRECORD
 90
        0
  2
AcDbDs::ID
280
    10
320
22
  2
Thumbnail_Data
280
    15
 94
     2032
310
89504E470D0A1A0A0000000D4948445200000100000000680803000000297CDED700000300504C5445212830000000C8C8C80000000000000000000000000000000000000000000000000000330000660000990000CC0000FF0033000033330033660033990033CC0033FF0066000066330066660066990066CC0066FF0099
310
000099330099660099990099CC0099FF00CC0000CC3300CC6600CC9900CCCC00CCFF00FF0000FF3300FF6600FF9900FFCC00FFFF3300003300333300663300993300CC3300FF3333003333333333663333993333CC3333FF3366003366333366663366993366CC3366FF3399003399333399663399993399CC3399FF33CC00
310
33CC3333CC6633CC9933CCCC33CCFF33FF0033FF3333FF6633FF9933FFCC33FFFF6600006600336600666600996600CC6600FF6633006633336633666633996633CC6633FF6666006666336666666666996666CC6666FF6699006699336699666699996699CC6699FF66CC0066CC3366CC6666CC9966CCCC66CCFF66FF0066
310
FF3366FF6666FF9966FFCC66FFFF9900009900339900669900999900CC9900FF9933009933339933669933999933CC9933FF9966009966339966669966999966CC9966FF9999009999339999669999999999CC9999FF99CC0099CC3399CC6699CC9999CCCC99CCFF99FF0099FF3399FF6699FF9999FFCC99FFFFCC0000CC00
310
33CC0066CC0099CC00CCCC00FFCC3300CC3333CC3366CC3399CC33CCCC33FFCC6600CC6633CC6666CC6699CC66CCCC66FFCC9900CC9933CC9966CC9999CC99CCCC99FFCCCC00CCCC33CCCC66CCCC99CCCCCCCCCCFFCCFF00CCFF33CCFF66CCFF99CCFFCCCCFFFFFF0000FF0033FF0066FF0099FF00CCFF00FFFF3300FF3333
310
FF3366FF3399FF33CCFF33FFFF6600FF6633FF6666FF6699FF66CCFF66FFFF9900FF9933FF9966FF9999FF99CCFF99FFFFCC00FFCC33FFCC66FFCC99FFCCCCFFCCFFFFFF00FFFF33FFFF66FFFF99FFFFCCFFFFFF0000000D0D0D1A1A1A2828283535354343435050505D5D5D6B6B6B787878868686939393A1A1A1AEAEAEBB
310
BBBBC9C9C9D6D6D6E4E4E4F1F1F1FFFFFF000000000000000000000000000000000000000000000000000000000000B21171F60000020D4944415478DAEDDD618E82301005E0B9C19CA4F7FFC7497A8DF77F9116DA82A2667783CE7B8D311222099FD3D276289AFD63C97F54EC5B4BFEA8C3084000021080002E0100400F00
310
5501F35DE10318F75102F8BDCFAA028A00014407A8318FE4A8C513A800EC56E3D3349444063097C9BB082003B8BD30B5FE20E60D010840002400BE5C057E31D91B0220E77D04F000942A7000302E00600FF0FA24890022008C3D4124BAAE30F758601D0DA24500983A421F721801084000021080000420000108E07280321E
310
E001D89F2DDE04891601D8C6886CC3E1A1F4677FDC8B5800E5879FD252B0BCF779815B28C086D38F0850678480FD8CD07ACB08FA2621640494D3821D324335021A8009201C409B165F01BA3017004315384B8ED6C4810705F0676D80AF001EBB11BC5774151080006800D6E4288EC9518EAE709AFAD6AF07A8170074E3E560
310
00AF0D87DB7DA4E3DE682B46306EAEFD80937BC9A301941AEEE32E2280079B27EB49B4642606C0E58711800004200001084000D700E0CD8CB822201AC093FC6F78803AE3D3A77FA900DC0E5322C606703EED49D006084000D400CFD29F1400AA020228004E0EE0A4005B4F70EB0FF27585CB12EA05C0CD180743DE001C8C8F
310
D26AD9207713001F801EA7771E01F4CF16CF0FBF4303B0740EBA75462003501560AF02790EFAFA936F73A78A00A60828ED5EB6D60AAA11646C048DB70ADC5D53F1E5005FF0373B3F7D880AB1F166A7610000000049454E44AE4260829D1FEAB426A449AB4F6D0000000049454E44AE426082000049454E44AE4260828C3631
310
405D362F0019005015CEAD037E0F0638809A748E8FC02F022040453CD73D609F0009709ECF7913DC2380029C06743F05B6045880B384018EC16F0230C049C41073C027011AE038639041E89D000E701832CC2428860047295B00FE0002B943D44CD44A1E0000000049454E44AE426082D802A17A878513AB4062203498670D
310
1500205BC865BB0703DE4E2C80F56F3F84C3FA1240F492FFAD01C8E0045702F503705D1F6B20640908B080D9AAB3C4016700C375DBF07515A0E72A90160A9FCA7A0DA06C5379F1151B14EF03065ED50E20C100EA9D1F700210E20455CB001E9DA0499AED2408C05315489BED55F1D4903800D7F62FD809C60642A9B3FD845A
310
C0D1072497BF912A905EFEA57B55E98840048017B35DE7E2DBEE6375042E7DC015807FCAFFECD7F6F25B12329DE09BBBB8A5AACC060203A197B3BDFD4E90441FF01680920DC07EBBD38B570BBCEA3DD4EF048F3EC01B297C6101469805901FFFBC202014C031FE497704ABF1CB04C0F1B68F0BA0B248E829106229FF3C2ABC
310
01182A07404727A878002C0537AABACEC0E334B9A856EE56265E9F21A18B3D0E0BF839C1771AE3D4208088A3A93DF7F36E6700D682B3BD58CB3A5576F48232E72BE9FDC3C9519BF31FD95E2D1605C00DF7B86A802C005924C807D40F207733080B000011000E4E6EFCAF3D0700000080CF01F03DF411DD0C2A3E0B90D90A00
310
00138073B82FC40902000000009C20E2802C16A03AB2000038B83996979A0000009AF50163151A3EBB737B1620530000000000000000000000001F08A130AA0000000000740CE00FA8778D5C176D10820000000049454E44AE42608208218410420821841042087946FE030CBEA403687DB2BE0000000049454E44AE426082
  0
ENDSEC
  0
EOF
